<?xml version="1.0" standalone="no"?>
<!DOCTYPE svg PUBLIC "-//W3C//DTD SVG 1.1//EN" "http://www.w3.org/Graphics/SVG/1.1/DTD/svg11.dtd" >
<!--
2013-9-30: Created.
-->
<svg>
<metadata>
Created by iconfont
</metadata>
<defs>

<font id="Hui-iconfont" horiz-adv-x="1024" >
  <font-face
    font-family="Hui-iconfont"
    font-weight="500"
    font-stretch="normal"
    units-per-em="1024"
    ascent="896"
    descent="-128"
  />
    <missing-glyph />
    
    <glyph glyph-name="x" unicode="x" horiz-adv-x="1001"
d="M281 543q-27 -1 -53 -1h-83q-18 0 -36.5 -6t-32.5 -18.5t-23 -32t-9 -45.5v-76h912v41q0 16 -0.5 30t-0.5 18q0 13 -5 29t-17 29.5t-31.5 22.5t-49.5 9h-133v-97h-438v97zM955 310v-52q0 -23 0.5 -52t0.5 -58t-10.5 -47.5t-26 -30t-33 -16t-31.5 -4.5q-14 -1 -29.5 -0.5
t-29.5 0.5h-32l-45 128h-439l-44 -128h-29h-34q-20 0 -45 1q-25 0 -41 9.5t-25.5 23t-13.5 29.5t-4 30v167h911zM163 247q-12 0 -21 -8.5t-9 -21.5t9 -21.5t21 -8.5q13 0 22 8.5t9 21.5t-9 21.5t-22 8.5zM316 123q-8 -26 -14 -48q-5 -19 -10.5 -37t-7.5 -25t-3 -15t1 -14.5
t9.5 -10.5t21.5 -4h37h67h81h80h64h36q23 0 34 12t2 38q-5 13 -9.5 30.5t-9.5 34.5q-5 19 -11 39h-368zM336 498v228q0 11 2.5 23t10 21.5t20.5 15.5t34 6h188q31 0 51.5 -14.5t20.5 -52.5v-227h-327z" />
    

    
    <glyph glyph-name="gotop" unicode="&#59012;" d="M512.399 571.267l371.34-372.937-158.918 0 0-264.33-425.643 0-0.799 264.33-156.522 0zM936.446 834l0-106.211-848.89 0 0 106.211 848.89 0z"  horiz-adv-x="1024" />

    
    <glyph glyph-name="music" unicode="&#58895;" d="M977.92 198.656q-7.168-38.912-27.648-69.632-17.408-26.624-52.224-48.128t-94.208-21.504q-38.912 0-73.728 5.12t-61.44 17.408-43.52 32.256-19.968 48.64 8.192 59.904 33.792 56.832 54.784 41.984 70.144 16.384q64.512 0 112.64-22.528l0 428.032-464.896-67.584 4.096-570.368 0-25.6q0-30.72-12.288-59.904t-34.304-51.712-53.248-35.84-69.12-13.312q-40.96 0-75.776 7.68t-61.44 22.528-43.008 36.864-19.456 50.688 8.192 55.808 34.304 48.64 55.296 36.352 70.144 18.944q28.672 4.096 56.32 0.512t52.224-11.776l0 571.392 646.144 93.184 0-651.264z"  horiz-adv-x="1024" />

    
    <glyph glyph-name="tags" unicode="&#58955;" d="M913.28 371.041q42.24-49.92 0.96-96l-297.6-298.56q-9.6-7.68-20.64-11.04t-22.56-2.4-21.6 4.8-16.8 10.56q-107.52 107.52-192 192.96l-71.04 72q-35.52 34.56-62.88 62.4t-44.64 45.12l-18.24 18.24q-1.92 1.92-6.24 8.16t-9.12 16.32-8.64 22.56-3.84 26.88l0 17.28q0 13.44 0.48 33.6t0.96 44.16 0.48 48.96q0.96 58.56 1.92 129.6 1.92 11.52 4.32 23.04t12 22.08q9.6 9.6 21.6 12.96t21.6 3.36l291.84 0q1.92 0.96 13.44 0.48t14.4-2.4q5.76-1.92 12.96-6.72t12-9.6zM258.56 582.241q24.96 0 42.24 17.28t17.28 42.24-17.28 42.24-42.24 17.28-42.72-17.28-17.76-42.24 17.76-42.24 42.72-17.28z"  horiz-adv-x="1024" />

    
    <glyph glyph-name="jieri" unicode="&#59175;" d="M624.32 588.64q0-49.92-17.76-94.080t-47.52-77.28-68.64-52.32-82.080-19.2-82.56 18.24-69.12 51.36-47.52 78.72-17.76 100.32q0 43.2 17.28 82.080t46.56 68.64 67.68 47.52 81.6 17.76 82.56-18.72 70.080-49.44 48.96-70.56 18.24-83.040zM369.92 278.56l-0.96-340.8 34.56 45.12 36.48-45.12v340.8h-70.080zM598.4 764.32q20.16-24 36.48-51.84 13.44-24 24.96-54.72t11.52-64.32q-1.92-58.56-12.96-97.92t-24.48-63.36q-16.32-27.84-35.52-44.16 27.84 2.88 55.68 8.64 24 4.8 51.84 12.48t52.8 21.12q22.080 11.52 41.76 30.24t33.6 44.64 19.68 58.080 0 71.52q-5.76 40.32-33.6 72t-66.24 50.4-80.16 22.080-75.36-14.88zM599.36 334.24l-0.96-325.44 33.6 44.16 36.48-44.16v325.44h-69.12z"  horiz-adv-x="1024" />

    
    <glyph glyph-name="jishiqi" unicode="&#59176;" d="M775.712 597.302q5.72 4.766 11.44 8.58l9.533 7.627q4.766 3.814 8.58 6.673 9.533 7.627 21.45 6.197t19.543-9.056 8.58-20.497-6.673-20.497q-2.86-2.86-8.103-7.627t-10.010-9.533q-5.72-4.766-12.393-10.487 12.393-15.253 24.787-40.040t22.88-54.817 17.16-63.397 6.673-65.78q0-80.079-30.506-150.149t-82.462-122.026-122.026-82.462-150.149-30.506-150.149 30.506-122.026 82.462-82.462 122.026-30.506 150.149 30.506 150.149 82.462 122.026 122.026 82.462 150.149 30.506q81.986 0 152.532-30.983t119.166-81.509zM504.967 640.201q-65.78 0-123.456-24.787t-100.576-67.687-67.687-100.576-24.787-123.456 24.787-123.456 67.687-100.576 100.576-67.687 123.456-24.787 123.456 24.787 100.576 67.687 67.687 100.576 24.787 123.456-24.787 123.456-67.687 100.576-100.576 67.687-123.456 24.787zM568.839 767.948q0-13.346-6.673-24.309t-16.207-18.59-20.497-11.44-20.497-3.814q-10.487 0-21.926 3.814t-20.973 11.44-15.73 18.113-6.197 24.787v53.386h128.699v-53.386zM522.127 314.164q-7.627-5.72-16.207-5.243t-14.3 8.103q-5.72 6.673-4.766 15.253t8.58 15.253l194.479 164.926q6.673 4.766 16.207 4.766t15.253-6.673q5.72-7.627 4.766-16.207t-9.533-16.207zM533.567 585.862q0-11.44-8.103-20.020t-20.497-8.58-20.973 8.58-8.58 20.020q0 12.393 8.58 20.973t20.973 8.58 20.497-8.58 8.103-20.973zM286.655 324.651q0-12.393-8.58-20.973t-20.973-8.58-20.497 8.58-8.103 20.973 8.103 20.497 20.497 8.103 20.973-8.103 8.58-20.497zM532.614 70.112q0-12.393-8.103-20.973t-20.497-8.58-20.973 8.58-8.58 20.973 8.58 20.497 20.973 8.103 20.497-8.103 8.103-20.497zM779.525 324.651q0-12.393-8.58-20.973t-20.020-8.58q-12.393 0-20.973 8.58t-8.58 20.973 8.58 20.497 20.973 8.103q11.44 0 20.020-8.103t8.58-20.497z"  horiz-adv-x="1024" />

    
    <glyph glyph-name="pad" unicode="&#58956;" d="M856.427 685.44q40.32-0.96 60.48-22.56t20.16-57.12l0-39.36q0-34.56-0.48-83.04t-0.48-104.64-0.48-105.12-0.48-84.48l0-42.24q0-30.72-17.76-51.36t-43.68-20.64l-735.36 0q-30.72 0.96-53.76 22.56t-23.04 56.16l0 451.2q0 15.36 5.28 29.76t15.36 25.92 24.48 18.72 33.6 7.2l480.96 0q61.44 0 110.88-0.48t83.04-0.48l41.28 0zM814.187 595.2l-650.88 0 0.96-424.32 648.96 0.96zM877.547 416.64q-14.4 0-24.96-10.08t-10.56-24.48 10.56-24.48 24.96-10.08 24.96 10.08 10.56 24.48-10.56 24.48-24.96 10.08z"  horiz-adv-x="1024" />

    
    <glyph glyph-name="lunzi" unicode="&#58957;" d="M638.722-30.395q-84.799-27.631-170.074-20.009t-159.117 44.781-130.533 100.997-84.323 148.636-20.009 170.074 44.781 159.594 101.473 131.01 149.113 84.323 170.074 20.009 159.117-45.258 130.533-101.473 84.323-148.636 20.009-170.074-44.781-159.117-101.473-130.533-149.113-84.323zM835.951 489.832q-22.867 68.601-68.601 120.529t-105.284 81.941-128.628 36.206-137.679-16.674-120.529-68.601-81.941-105.284-36.683-128.628 16.198-137.679 68.601-120.529 105.761-81.941 129.104-36.206 137.679 16.674 120.529 68.601 81.941 105.284 36.206 128.628-16.674 137.679zM602.516 80.129q-61.932-20.009-123.864-14.768t-116.241 32.395-95.756 73.842-61.455 108.619-14.768 124.34 32.395 116.718 74.318 95.756 109.095 61.455 123.864 14.292 116.241-32.872 95.756-73.842 61.455-108.619 14.768-124.34-32.395-116.241-74.318-95.28-109.095-61.455zM504.378 437.428q-24.773 0-41.447-16.674t-16.674-41.447 16.674-41.923 41.447-17.15 41.923 17.15 17.15 41.923-17.15 41.447-41.923 16.674zM283.329 532.708l135.297-78.129q4.764 2.858 9.528 6.67 4.764 2.858 9.052 6.67t9.052 6.67q11.434 6.67 21.914 9.528 5.717 1.906 11.434 2.858l0 156.259q-16.198-0.953-33.348-4.764-15.245-3.811-34.301-10.004t-40.97-18.58q-24.773-14.292-41.447-28.108t-27.155-24.296q-11.434-12.386-19.056-24.773zM259.509 266.878l136.25 78.129q-1.906 5.717-2.858 11.434-0.953 4.764-1.429 10.481t-0.476 11.434q0 13.339 2.858 23.82 0.953 5.717 2.858 11.434l-134.344 78.129q-6.67-13.339-12.386-30.49-4.764-14.292-9.052-34.777t-4.288-45.258q-0.953-28.584 2.858-50.022t8.575-35.73q4.764-17.15 11.434-28.584zM478.652 113.477l0.953 157.212q-5.717 0.953-11.434 3.811-10.481 2.858-20.009 9.528-5.717 2.858-10.481 6.67t-8.575 7.622-8.575 7.622l-134.344-77.177q8.575-13.339 20.009-26.678 10.481-11.434 25.726-24.773t37.159-26.678q23.82-14.292 44.305-21.914t34.777-11.434q17.15-3.811 30.49-3.811zM724.474 224.002l-135.297 78.129q-4.764-3.811-8.575-7.622-3.811-2.858-8.575-6.193t-9.528-6.193q-5.717-3.811-11.91-5.717t-10.957-3.811q-5.717-1.906-10.481-2.858l0-156.259q15.245 0.953 32.395 4.764 15.245 2.858 34.777 9.528t41.447 19.056q24.773 13.339 40.97 27.155t26.678 25.249q11.434 12.386 19.056 24.773zM748.294 491.738l-135.297-78.129 1.906-11.434q0.953-4.764 1.429-10.957t0.476-10.957q0-6.67-0.953-13.339t-1.906-11.434q-1.906-5.717-2.858-11.434l134.344-77.177q6.67 13.339 12.386 30.49 4.764 14.292 9.052 34.777t4.288 45.258q0 27.631-3.335 49.545t-8.099 36.206q-4.764 17.15-11.434 28.584zM530.103 645.138l0-157.212 11.434-3.811q4.764-1.906 10.004-4.288t10.004-5.24q4.764-3.811 10.004-7.146t9.052-7.146l8.575-8.575 134.344 78.129q-8.575 12.386-20.009 25.726-10.481 11.434-25.726 25.249t-37.159 27.155q-24.773 14.292-45.258 21.438t-34.777 10.957q-17.15 3.811-30.49 4.764z"  horiz-adv-x="1024" />

    
    <glyph glyph-name="jiandao" unicode="&#58958;" d="M683.291 776.192q17.408 31.744 28.672 46.592t17.408 19.968 16.896 2.048 16.896-15.36 5.12-34.304-7.168-62.976q-3.072-20.48-14.336-46.08t-24.576-50.688-26.112-46.592-19.968-32.768q-8.192-11.264-23.552-31.744l-30.72-40.96q-18.432-23.552-37.888-49.152 11.264-18.432 22.528-34.816 9.216-14.336 17.92-28.16t13.824-22.016q16.384-26.624 47.616-52.224t61.952-40.96q15.36-8.192 45.056-17.408t58.368-28.16 49.664-52.224 17.92-89.6q-2.048-45.056-20.48-77.312t-46.08-52.224-61.952-27.648-67.584-3.072-62.976 22.016-48.128 48.128q-18.432 28.672-25.088 56.832t-6.656 56.832 4.608 58.368 9.728 60.416q3.072 17.408 2.56 29.184t-3.072 20.48-6.656 14.848l-8.192 12.288q-4.096 6.144-12.288 17.92t-16.384 23.04q-10.24 13.312-21.504 27.648l-16.384-22.528q-8.192-10.24-16.896-22.528t-16.896-23.552q-17.408-23.552-18.944-38.4t3.584-35.328q3.072-10.24 7.68-37.376t3.072-62.464-12.288-74.24-39.424-73.728q-24.576-29.696-56.32-44.032t-64-15.36-63.488 10.24-55.808 31.744-39.936 50.176-16.384 65.536q-2.048 54.272 18.432 89.6t50.176 57.856 61.952 35.328 54.784 20.992q21.504 8.192 36.352 15.872t25.6 15.36 17.92 15.872 15.36 17.408 18.944 25.088 22.016 32.256q12.288 18.432 25.6 39.936-8.192 11.264-19.456 25.6-9.216 12.288-23.04 29.184t-30.208 37.376q-16.384 21.504-33.792 50.688t-32.256 57.856-26.112 53.248-15.36 35.84-8.192 29.184-5.12 35.328 2.048 32.256 12.288 20.992q9.216 5.12 15.872 4.608t11.776-5.12 9.728-12.288 11.776-17.92q3.072-5.12 12.8-19.968t23.552-35.84 30.208-46.592l32.768-51.2q38.912-60.416 87.04-135.168 35.84 61.44 67.584 113.664l26.624 45.056q13.312 22.528 25.088 41.984t20.48 34.304 13.824 23.04zM296.219 160.768q-37.888 0-64-26.112t-26.112-62.976 26.112-63.488 64-26.624q36.864 0 62.976 26.624t26.112 63.488-26.112 62.976-62.976 26.112zM751.899 160.768q-36.864 0-63.488-26.112t-26.624-62.976q0-18.432 7.168-34.816t19.456-28.672 28.672-19.456 34.816-7.168q36.864 0 62.976 26.624t26.112 63.488-26.112 62.976-62.976 26.112z"  horiz-adv-x="1024" />

    
    <glyph glyph-name="xianshiqi" unicode="&#58959;" d="M671.744 21.164q0-11.264-6.656-20.48t-18.944-9.216l-243.712 1.024q-11.264-1.024-17.92 9.216t-6.656 19.456q0 8.192 6.144 18.432t18.432 10.24l75.776 0 0 64.512-340.992 0q-33.792 0-54.784 18.944t-20.992 51.712l0 508.928q0 32.768 19.968 49.152t52.736 16.384l755.712 0q32.768 0 52.224-17.92t19.456-47.616l0-508.928q0-31.744-17.92-49.664t-53.76-17.92l-318.464 0 0-68.608 73.728 0q11.264 0 18.944-8.704t7.68-18.944zM890.88 646.828l-768 0 0-359.424 768 0 0 359.424zM566.272 244.396l-87.04 0 0-77.824 87.04 0 0 77.824z"  horiz-adv-x="1024" />

    
    <glyph glyph-name="zhaoxiangji" unicode="&#58960;" d="M677.888 316.076q0-28.672-10.752-53.76t-29.184-43.52-43.008-29.184-53.248-10.752-53.248 10.752-43.008 29.184-29.184 43.52-10.752 53.76q0 27.648 10.752 52.736t29.184 43.52 43.008 29.184 53.248 10.752 53.248-10.752 43.008-29.184 29.184-43.52 10.752-52.736zM171.008 43.692q-28.672 0-51.2 5.12t-37.888 17.408-23.552 33.28-8.192 52.736l0 346.112q0 57.344 27.136 79.872t85.504 22.528l172.032 0q16.384 0 27.136 6.144t17.408 16.384 11.776 24.064 11.264 28.16q10.24 26.624 35.84 46.08t58.368 19.456l95.232 0q37.888 0 61.952-20.992t32.256-44.544q11.264-30.72 29.696-52.736t38.912-22.016l130.048 0q45.056 1.024 71.68-24.576t26.624-74.752l0-351.232q0-52.224-27.648-79.36t-73.728-27.136l-710.656 0zM539.648 530.092q-45.056 0-83.968-16.896t-67.584-46.08-45.568-68.096-16.896-82.944q0-45.056 16.896-83.968t45.568-67.584 67.584-45.568 83.968-16.896q44.032 0 82.944 16.896t67.584 45.568 45.568 67.584 16.896 83.968q0 44.032-16.896 82.944t-45.568 68.096-67.584 46.08-82.944 16.896zM611.328 640.684q0 16.384-1.536 25.6t-20.992 9.216l-84.992 0q-19.456 1.024-20.992-8.192t-1.536-26.624q-1.024-19.456 2.048-27.648t20.48-8.192l84.992 0q19.456 0 20.992 9.216t1.536 26.624z"  horiz-adv-x="1024" />

    
    <glyph glyph-name="danfanxiangji" unicode="&#58961;" d="M207.872 129.026q0-39.936-23.04-59.392t-55.808-19.456q-35.84 0-57.856 18.944t-22.016 64l0 393.216q-1.024 32.768 22.016 52.224t57.856 19.456q36.864 0 57.856-22.016t20.992-51.712l0-395.264zM265.216 56.322l-1.024 537.6 129.024 0q16.384 0 28.16 8.704t20.48 22.528 14.848 29.696 12.288 30.208q10.24 24.576 25.6 42.496t47.104 17.92l107.52 0q18.432 0 30.72-5.12t20.992-14.336 14.848-20.992 11.264-24.064q6.144-14.336 11.776-29.184t12.288-27.136 15.36-20.48 20.992-8.192l86.016 0q52.224-1.024 78.848-29.696t26.624-79.872l0-326.656q0-53.248-25.6-78.336t-74.752-25.088l-613.376 0zM598.016 502.786q-39.936 0-74.24-14.848t-59.904-40.448-40.448-60.416-14.848-73.728q0-39.936 14.848-74.24t40.448-59.904 59.904-40.448 74.24-14.848q38.912 0 73.728 14.848t60.416 40.448 40.448 59.904 14.848 74.24q0 38.912-14.848 73.728t-40.448 60.416-60.416 40.448-73.728 14.848zM714.752 314.37q0-24.576-9.216-45.568t-25.088-36.864-36.864-25.088-45.568-9.216-46.08 9.216-37.376 25.088-25.088 36.864-9.216 45.568 9.216 45.568 25.088 36.864 37.376 25.088 46.08 9.216 45.568-9.216 36.864-25.088 25.088-36.864 9.216-45.568z"  horiz-adv-x="1024" />

    
    <glyph glyph-name="dayinji" unicode="&#58962;" d="M301.76 535.948q-25.92-0.96-50.88-0.96l-79.68 0q-17.28 0-35.04-5.76t-31.2-17.76-22.08-30.72-8.64-43.68l0-72.96 875.52 0 0 39.36q0 15.36-0.48 28.8t-0.48 17.28q0 12.48-4.8 27.84t-16.32 28.32-30.24 21.6-47.52 8.64l-127.68 0 0-93.12-420.48 0 0 93.12zM948.8 312.268l0-49.92q0-22.08 0.48-49.92t0.48-55.68-10.08-45.6-24.96-28.8-31.68-15.36-30.24-4.32q-13.44-0.96-28.32-0.48t-28.32 0.48l-30.72 0-43.2 122.88-421.44 0-42.24-122.88-60.48 0q-19.2 0-43.2 0.96-24 0-39.36 9.12t-24.48 22.08-12.96 28.32-3.84 28.8l0 160.32 874.56 0zM188.48 251.788q-11.52 0-20.16-8.16t-8.64-20.64 8.64-20.64 20.16-8.16q12.48 0 21.12 8.16t8.64 20.64-8.64 20.64-21.12 8.16zM335.36 132.748q-7.68-24.96-13.44-46.08-4.8-18.24-10.08-35.52t-7.2-24-2.88-14.4 0.96-13.92 9.12-10.08 20.64-3.84l350.4 0q22.08 0 32.64 11.52t1.92 36.48q-4.8 12.48-9.12 29.28t-9.12 33.12q-4.8 18.24-10.56 37.44l-353.28 0zM354.56 492.748l0 218.88q0 10.56 2.4 22.08t9.6 20.64 19.68 14.88 32.64 5.76l180.48 0q29.76 0 49.44-13.92t19.68-50.4l0-217.92-313.92 0z"  horiz-adv-x="1024" />

    
    <glyph glyph-name="user-zhanzhang" unicode="&#58963;" d="M702.161 607.427q53.947 0 101.598-20.678t83.167-56.194 56.194-83.167 20.678-102.497q0-68.332-31.019-124.975t-83.167-91.708q-8.093 26.973-25.175 51.249 1.798 1.798 2.697 2.247t1.798 2.247q7.193 9.891 7.642 15.734t-13.037 9.441-19.33 4.045-12.138-6.743q-7.193 4.495-16.184 8.542t-17.083 7.643q1.798 2.697 3.146 6.743t-0.449 14.835q-1.798 12.588 3.146 18.431t8.542 9.441q1.798 1.798-1.348 5.394t-7.642 7.642-8.093 8.542-2.697 8.992q5.394 17.083-3.596 18.431t-32.367 0.449q-11.689 0-17.532-1.348t-15.734 0.449q-8.093 0.899-12.138 2.697t-8.093 4.045-9.441 4.045-16.184 1.798q-15.285 0.899-21.578 1.798t-8.992 1.798-4.495 1.348-7.193 0.449q-0.899 0-1.798-0.449t-2.697-0.449q15.285 20.678 27.872 40.01t22.478 37.313q3.596-3.596 8.542-4.045t11.689-0.449 14.386-1.348 16.633-6.742q13.487-3.596 25.175-7.193 9.891-3.596 21.128-7.192t18.431-8.093q8.093-5.394 6.743-13.487t-5.394-16.633-6.743-16.184 3.596-12.138q8.093-6.293 12.138-7.642t8.542-0.899 12.138 2.247 23.827 1.798q-4.495 0-1.348 3.596t8.542 8.542 12.138 9.891 11.239 8.542 13.936 5.843 18.881 5.394 16.633 8.542 8.093 15.285q0.899 20.679-4.045 35.964t-19.33 38.662q-8.093 12.588-14.386 20.678t-12.588 14.386-12.588 10.79-15.285 9.891l-17.982 10.79q-8.992 5.394-18.881 7.192t-22.028-2.247-26.524-18.431q-3.596-4.495-9.441-10.34t-12.588-11.239-13.037-8.992-10.79-3.596q-3.596 0-9.441-0.449t-13.037-2.247q16.184 45.854 14.386 77.772t-12.588 55.295q8.093 0.899 15.285 0.899l16.184 0zM599.662 232.501q22.478-8.992 49-15.734t50.799-16.184 43.606-23.377 26.524-37.313q4.495-13.487 7.193-34.165t2.697-42.258-3.146-40.46-10.34-27.872q-4.495-6.293-25.175-13.487t-51.249-13.936-67.883-12.588-75.075-10.34-72.827-6.743-61.138-2.247-59.79 2.697-68.782 6.743-69.681 9.441-62.936 10.79-48.101 10.79-25.175 9.891q-8.992 7.193-13.936 44.056t3.146 94.406q5.394 32.367 26.973 49.001t50.799 26.973 60.239 18.431 54.396 23.377q17.982 11.689 27.872 22.028t13.936 21.128 4.045 22.477-0.899 25.175q-1.798 20.678-13.936 32.367t-25.625 24.276q-7.193 6.293-13.037 17.083t-10.34 22.477q-4.495 12.588-8.992 27.872-6.293 1.798-12.588 6.293-5.394 4.495-11.239 12.588t-10.34 23.377-3.146 27.872 4.944 21.578q3.596 9.891 10.79 18.881 0 34.165 3.596 67.433 3.596 28.771 12.588 60.689t27.872 57.992q17.083 24.276 37.762 40.01t42.258 24.726 43.606 12.138 41.808 3.146q26.074 0 49.9-5.843t44.056-15.734 36.414-22.478 26.074-25.175q22.477-28.771 33.716-62.487t15.734-64.286q5.394-35.964 4.495-71.029 5.394-4.495 8.992-11.689 3.596-6.293 5.843-16.184t0.449-24.276q-1.798-18.881-8.092-30.12t-12.588-17.532q-8.093-7.192-16.184-9.891-4.495-15.285-8.992-27.872-4.495-10.79-10.34-22.028t-13.037-16.633q-8.092-7.192-14.835-12.138t-12.138-10.79-8.992-13.037-5.394-17.982q-2.697-13.487-2.247-27.423t7.192-27.872 20.678-26.524 38.213-22.477zM481.88 41.892q0 5.394-2.697 20.679t-5.843 32.817-6.743 33.716-5.394 23.377q9.891 8.093 20.678 26.973 1.798 5.394-2.697 12.588t-11.689 13.487q-8.092 7.192-18.881 15.285l-44.056 0q-9.891-8.093-17.083-15.285-6.293-6.293-10.79-13.487t-1.798-11.689q8.992-17.083 16.184-26.074-1.798-5.394-5.394-20.229t-8.093-32.367-7.643-33.716-3.146-24.276q0-4.495 7.642-13.037t17.982-16.633 20.229-14.386 14.386-6.293 13.936 5.843 18.431 13.936 15.734 16.184 6.742 12.588z"  horiz-adv-x="1027" />

    
    <glyph glyph-name="chajian" unicode="&#58964;" d="M801.792 404.48q31.744 0 60.416-12.288t50.176-33.792 33.792-50.176 12.288-60.416q0-32.768-12.288-60.928t-33.792-49.664-50.176-33.792-60.416-12.288q-29.696 0-55.808 10.752t-46.592 28.16l0-128q0-27.648-19.456-47.104t-47.104-19.456l-504.832 0q-27.648 0-47.616 19.456t-19.968 47.104l0 113.664q5.12 21.504 18.432 31.744t38.912-5.12q12.288-7.168 18.432-8.192 26.624-13.312 54.272-13.312t51.712 10.24 41.984 28.16 28.16 41.472 10.24 51.2-10.24 51.712-28.16 41.984-41.984 28.16-51.712 10.24q-26.624 0-52.224-11.264-6.144-2.048-10.24-4.096-12.288-6.144-24.064-11.264t-20.992-4.096-15.36 10.24-7.168 30.72l0 107.52q0 27.648 19.968 47.616t47.616 19.968l159.744 0q-16.384 20.48-26.112 45.568t-9.728 53.76q0 33.792 12.8 62.976t34.304 50.688 50.688 34.304 61.952 12.8 61.952-12.8 50.688-34.304 34.304-50.688 12.8-62.976q0-57.344-35.84-99.328l97.28 0q27.648 0 47.104-19.968t19.456-47.616l0-136.192q20.48 17.408 46.592 28.16t55.808 10.752z"  horiz-adv-x="1024" />

    
    <glyph glyph-name="arrow1-bottom" unicode="&#58996;" d="M564.224 851.968q43.008 0 58.368-20.48t15.36-65.536q0-20.48 0.512-64.512t0.512-93.696 0.512-96.768 0.512-74.752q0-38.912 7.68-61.952t35.328-22.016q19.456 0 48.128-1.024t49.152-1.024q35.84 0 45.568-18.944t-13.824-49.664q-24.576-30.72-57.344-72.704t-68.096-86.016-69.12-86.528-59.392-75.264q-23.552-29.696-45.568-30.72t-45.568 27.648q-24.576 29.696-57.344 69.632t-67.072 82.432-67.584 83.968-59.904 74.24q-29.696 35.84-22.528 58.88t44.032 23.04l24.576 0q14.336 0 29.696 0.512t30.208 1.536 26.112 1.024q26.624 0 32.768 15.36t6.144 41.984q0 29.696-0.512 77.824t-0.512 100.352-0.512 101.376-0.512 79.872q0 13.312 2.048 27.648t9.728 26.112 20.992 19.456 36.864 7.68q27.648 0 53.248 0.512t57.344 0.512z"  horiz-adv-x="1024" />

    
    <glyph glyph-name="arrow1-left" unicode="&#59000;" d="M966.656 328.704q0-43.008-20.48-58.368t-65.536-15.36l-64.512 0q-44.032 0-93.696-0.512t-96.768-0.512l-74.752 0q-38.912 0-61.952-7.68t-22.016-35.328q0-20.48-1.024-48.64t-1.024-49.664q0-35.84-19.456-45.568t-50.176 13.824q-30.72 24.576-72.704 57.856t-85.504 68.096-86.016 68.608-75.264 59.392q-30.72 24.576-31.232 46.592t28.16 45.568q28.672 24.576 68.608 56.832t82.944 66.56 84.48 68.096 74.24 60.416q35.84 28.672 58.88 22.016t23.04-43.52l0-25.6q0-14.336 0.512-29.696t1.024-30.208 0.512-26.112q1.024-25.6 16.384-32.256t41.984-6.656q29.696 0 77.824 0.512t100.352 0.512 101.376 0.512 79.872 0.512q13.312 0 27.648-2.048t26.112-9.728 19.456-21.504 7.68-36.352q0-27.648 0.512-53.248t0.512-57.344z"  horiz-adv-x="1024" />

    
    <glyph glyph-name="arrow1-top" unicode="&#59001;" d="M470.016-80.896q-44.032 0-59.392 20.48t-15.36 65.536q0 20.48-0.512 64.512t-1.024 93.696-1.536 96.768-1.024 74.752q0 39.936-7.68 62.464t-35.328 21.504q-20.48 0-48.64 1.024t-49.664 0q-35.84 0-45.568 19.456t13.824 50.176q24.576 30.72 57.344 72.704t67.584 86.016 68.096 87.04 58.88 75.776q23.552 29.696 45.568 30.72t46.592-26.624q24.576-29.696 56.832-69.632t67.072-82.432 68.608-83.968 60.416-73.216q29.696-35.84 23.04-58.88t-43.52-23.04q-11.264 0-25.088-0.512t-29.184-1.024-30.208-1.024-27.136-0.512q-25.6-1.024-32.256-16.384t-5.632-41.984q0-29.696 0.512-77.824t1.024-100.352 1.536-101.376 1.024-79.872q0-13.312-2.048-27.648t-9.728-26.112-21.504-19.968-36.352-8.192q-27.648 0-52.736-0.512t-56.832-1.536z"  horiz-adv-x="1024" />

    
    <glyph glyph-name="arrow1-right" unicode="&#59002;" d="M47.104 442.368q0 43.008 20.992 57.856t66.048 14.848q20.48 0 64.512-0.512t93.696-0.512 96.768-0.512 74.752-0.512q38.912-1.024 61.44 6.656t22.528 35.328q0 20.48 1.536 48.64t1.536 48.64q1.024 35.84 20.48 45.568t49.152-14.848q30.72-24.576 71.68-58.368t84.992-69.12 86.016-69.632 74.752-59.904q29.696-24.576 30.208-46.592t-28.16-45.568q-29.696-24.576-70.144-56.32t-83.968-65.536-85.504-67.072-74.752-58.88q-35.84-28.672-58.88-21.504t-22.016 44.032l0 24.576 0 29.696q0 15.36-0.512 30.208t-0.512 27.136q0 25.6-15.36 32.256t-41.984 6.656q-29.696 0-77.824 0.512t-100.352 0.512-101.376 0.512-79.872 0.512q-13.312 0-27.648 2.56t-26.112 9.728-18.944 20.992-7.168 37.376q0 27.648-0.512 53.248t0.512 57.344z"  horiz-adv-x="1024" />

    
    <glyph glyph-name="jieri1" unicode="&#58965;" d="M617.301 612.352q0-53.248-18.944-100.864t-50.688-82.944-73.728-55.808-88.064-20.48-87.552 19.456-73.216 54.784-50.688 84.48-18.944 107.52q0 46.08 18.432 87.552t49.152 72.704 72.192 50.176 87.552 18.944 88.064-19.456 74.752-52.224 52.224-75.264 19.456-88.576zM344.917 280.576l-1.024-362.496 37.888 48.128 38.912-48.128 0 362.496-75.776 0zM589.653 798.72q21.504-25.6 38.912-54.272 14.336-25.6 26.624-58.368t11.264-68.608q-1.024-62.464-12.8-104.448t-26.112-67.584q-17.408-30.72-37.888-48.128 29.696 3.072 59.392 9.216 25.6 5.12 55.296 13.824t56.32 22.016q23.552 12.288 44.544 32.256t35.84 47.616 20.992 62.464 0 76.8q-6.144 43.008-35.84 76.8t-70.656 53.76-85.504 23.04-80.384-16.384zM590.677 339.968l-1.024-346.112 35.84 46.08 37.888-46.08 0 346.112-72.704 0z"  horiz-adv-x="1024" />

    
    <glyph glyph-name="face-weixiao" unicode="&#58966;" d="M512 832.512q93.184 0 174.592-35.328t142.336-95.744 96.256-142.336 35.328-174.08q0-93.184-35.328-174.592t-96.256-142.336-142.336-96.256-174.592-35.328q-92.16 0-174.08 35.328t-142.336 96.256-95.744 142.336-35.328 174.592q0 92.16 35.328 174.08t95.744 142.336 142.336 95.744 174.08 35.328zM674.816 610.304q-29.696 0-50.688-24.576t-20.992-60.416q0-34.816 20.992-59.392t50.688-24.576 50.176 24.576 20.48 59.392q0 35.84-20.48 60.416t-50.176 24.576zM343.04 608.256q-28.672 0-49.152-24.576t-20.48-59.392q0-35.84 20.48-60.416t49.152-24.576 48.64 24.576 19.968 60.416q0 34.816-19.968 59.392t-48.64 24.576zM765.952 257.024q1.024 2.048 1.024 7.168t-1.536 11.264-6.144 11.264-12.8 8.192q-23.552-28.672-58.368-51.2-29.696-19.456-75.264-35.328t-107.008-15.872-104.448 15.872-72.704 35.328q-33.792 22.528-57.344 51.2-8.192-2.048-12.288-7.168t-6.144-11.264-2.048-11.264 1.024-8.192q1.024-1.024 0.512-1.536t0.512-1.536q9.216-27.648 32.768-51.712t57.344-41.984 76.288-27.648 89.6-9.728q93.184 0 160.768 33.792t92.16 89.088q0 2.048 1.024 4.096t3.072 7.168z"  horiz-adv-x="1024" />

    
    <glyph glyph-name="face-chijing" unicode="&#58967;" d="M513.024 832.512q92.16 0 174.08-35.328t142.336-95.744 95.744-142.336 35.328-174.08q0-93.184-35.328-174.592t-95.744-142.336-142.336-96.256-174.08-35.328q-93.184 0-174.592 35.328t-142.336 96.256-96.256 142.336-35.328 174.592q0 92.16 35.328 174.08t96.256 142.336 142.336 95.744 174.592 35.328zM274.432 524.288q0-35.84 19.968-60.416t48.64-24.576 49.152 24.576 20.48 60.416q0 34.816-20.48 59.392t-49.152 24.576-48.64-24.576-19.968-59.392zM510.976 55.296q27.648 0 51.712 10.752t41.984 28.672 28.672 42.496 10.752 52.224-10.752 51.712-28.672 41.984-41.984 28.672-51.712 10.752-51.712-10.752-42.496-28.672-28.672-41.984-10.24-51.712 10.24-52.224 28.672-42.496 42.496-28.672 51.712-10.752zM674.816 441.344q29.696 0 50.688 24.576t20.992 59.392q0 35.84-20.992 60.416t-50.688 24.576-50.176-24.576-20.48-60.416q0-34.816 20.48-59.392t50.176-24.576z"  horiz-adv-x="1024" />

    
    <glyph glyph-name="face-dai" unicode="&#58968;" d="M513.024 830.464q93.184 0 174.592-35.328t141.824-95.744 95.744-142.336 35.328-174.08q0-93.184-35.328-174.592t-95.744-142.336-141.824-96.256-174.592-35.328-174.592 35.328-142.336 96.256-96.256 142.336-35.328 174.592q0 92.16 35.328 174.08t96.256 142.336 142.336 95.744 174.592 35.328zM274.432 522.24q0-35.84 19.968-60.416t48.64-24.576q29.696 0 49.664 24.576t19.968 60.416q0 34.816-19.968 59.392t-49.664 24.576q-28.672 0-48.64-24.576t-19.968-59.392zM638.976 190.464l-256 0 0-63.488 256 0 0 63.488zM674.816 439.296q29.696 0 50.688 24.576t20.992 59.392q0 35.84-20.992 60.416t-50.688 24.576-50.176-24.576-20.48-60.416q0-34.816 20.48-59.392t50.176-24.576z"  horiz-adv-x="1024" />

    
    <glyph glyph-name="face-shuaku" unicode="&#58969;" d="M513.024 833.536q92.16 0 174.08-35.328t142.336-96.256 95.744-142.336 35.328-174.592q0-92.16-35.328-174.08t-95.744-142.336-142.336-95.744-174.08-35.328q-93.184 0-174.592 35.328t-142.336 95.744-96.256 142.336-35.328 174.08q0 93.184 35.328 174.592t96.256 142.336 142.336 96.256 174.592 35.328zM765.952 257.024q1.024 3.072 1.024 8.192t-1.536 10.752-6.144 10.752-12.8 8.192q-23.552-28.672-58.368-51.2-29.696-19.456-75.264-35.328t-107.008-15.872q-60.416 0-103.936 15.872t-73.216 35.328q-33.792 22.528-57.344 51.2-15.36-3.072-18.432-17.408t-1.024-20.48q1.024-1.024 1.024-2.048 9.216-27.648 32.768-51.712t57.344-41.984 76.288-27.648 89.6-9.728q93.184 0 160.768 33.792t92.16 89.088q0 1.024 1.024 3.072t3.072 7.168zM660.48 386.048q31.744 0 70.144 18.944t73.216 42.496q39.936 26.624 80.896 62.464l-17.408 69.632-680.96 0-26.624-73.728q35.84-31.744 70.656-57.344 29.696-21.504 63.488-38.912t60.416-17.408 45.056 9.728 34.816 20.992 34.304 20.992 42.496 9.728 39.424-10.752 28.672-23.04 31.744-23.04 49.664-10.752z"  horiz-adv-x="1024" />

    
    <glyph glyph-name="face-mogui" unicode="&#58970;" d="M966.656 822.272q25.6-58.368 33.792-110.592 3.072-22.528 3.072-46.08t-5.632-45.056-18.944-40.448-35.84-31.232q-2.048-2.048-5.12-2.56t-5.12-2.56q14.336-36.864 21.504-76.8t7.168-81.92q0-93.184-35.328-174.592t-95.744-142.336-142.336-96.256-174.08-35.328q-93.184 0-174.592 35.328t-142.336 96.256-96.256 142.336-35.328 174.592q0 81.92 28.672 156.672l-7.168 4.096-7.168 3.072q-23.552 12.288-36.352 31.232t-18.944 40.448-5.632 45.056 3.584 46.08q8.192 52.224 33.792 110.592 11.264-34.816 25.6-68.608 12.288-28.672 29.696-58.368t37.888-49.152q61.44 86.016 156.16 136.192t208.384 50.176q55.296 0 107.52-13.312t98.304-37.376 85.504-57.856 70.144-75.776q20.48 20.48 36.864 49.664t28.672 56.832q14.336 32.768 25.6 67.584zM248.832 621.568q13.312-43.008 28.672-78.848 13.312-30.72 29.696-59.904t33.792-37.376q17.408-9.216 36.864-1.536t35.84 20.992q18.432 15.36 37.888 38.912zM766.976 257.024q1.024 2.048 1.024 7.168t-1.536 11.264-6.144 11.264-12.8 8.192q-23.552-28.672-58.368-51.2-29.696-19.456-75.264-35.328t-107.008-15.872q-60.416 0-103.936 15.872t-73.216 35.328q-33.792 22.528-57.344 51.2-8.192-2.048-12.288-7.168t-6.144-11.264-2.048-11.264 1.024-8.192q1.024-1.024 1.024-3.072 9.216-27.648 32.768-51.712t57.344-41.984 76.288-27.648 89.6-9.728q93.184 0 160.768 33.792t92.16 89.088q0 2.048 1.024 4.096t3.072 7.168zM681.984 445.44q17.408 8.192 33.792 37.376t29.696 59.904q15.36 35.84 28.672 78.848l-202.752-117.76q19.456-23.552 37.888-38.912 16.384-13.312 35.84-20.992t36.864 1.536z"  horiz-adv-x="1024" />

    
    <glyph glyph-name="face-ganga" unicode="&#58971;" d="M512 832.512q93.184 0 174.592-35.328t142.336-95.744 96.256-142.336 35.328-174.08q0-93.184-35.328-174.592t-96.256-142.336-142.336-96.256-174.592-35.328q-92.16 0-174.08 35.328t-142.336 96.256-95.744 142.336-35.328 174.592q0 92.16 35.328 174.08t95.744 142.336 142.336 95.744 174.08 35.328zM446.464 577.536l-192.512 0 0-64.512 192.512 0 0 64.512zM638.976 449.536l-64.512 0 0-128 64.512 0 0 128zM766.976 449.536l-64.512 0 0-128 64.512 0 0 128zM766.976 577.536l-192.512 0 0-64.512 192.512 0 0 64.512zM894.976 321.536l0 256-64.512 0 0-256 64.512 0z"  horiz-adv-x="1024" />

    
    <glyph glyph-name="face-qin" unicode="&#58972;" d="M512 832.512q92.16 0 174.08-35.328t142.336-96.256 95.744-142.336 35.328-174.592q0-92.16-35.328-174.08t-95.744-142.336-142.336-95.744-174.08-35.328q-93.184 0-174.592 35.328t-142.336 95.744-96.256 142.336-35.328 174.08q0 93.184 35.328 174.592t96.256 142.336 142.336 96.256 174.592 35.328zM252.928 513.024l192.512 0 0 64.512-192.512 0 0-64.512zM558.08 205.824q-11.264 6.144-33.28 12.8t-41.984 15.872-31.232 22.528 0 33.792q14.336 26.624 33.792 32.256t37.888 1.536q21.504-4.096 44.032-18.432l28.672 58.368q-38.912 20.48-76.8 25.6-32.768 4.096-68.096-6.656t-61.952-52.736q-10.24-16.384-12.8-30.72t0.512-26.624 9.728-23.04 14.848-19.968q19.456-20.48 52.224-35.84-21.504 2.048-38.912-5.12-14.336-6.144-27.136-23.552t-13.824-53.248q-1.024-26.624 7.168-46.08t21.504-33.28 30.72-22.528 35.84-12.8q43.008-11.264 98.304-6.144l0 60.416q-35.84 1.024-62.464 5.12-23.552 4.096-41.472 12.288t-15.872 24.576q3.072 21.504 14.336 30.72t26.112 11.264 31.744 0.512 32.256-2.56 22.016 8.192 6.656 21.504-6.144 24.064-16.384 17.92zM765.952 577.536l-192.512 0 0-64.512 192.512 0 0 64.512z"  horiz-adv-x="1024" />

    
    <glyph glyph-name="face-nu" unicode="&#58973;" d="M967.68 821.248q25.6-58.368 33.792-110.592 3.072-22.528 3.072-45.568t-5.632-44.544-18.944-40.448-35.84-31.232q-2.048-2.048-5.12-3.072t-5.12-3.072q14.336-36.864 21.504-76.288t7.168-82.432q0-92.16-35.328-174.08t-96.256-142.336-142.336-95.744-174.592-35.328q-92.16 0-174.08 35.328t-142.336 95.744-95.744 142.336-35.328 174.08q0 41.984 7.168 81.408t21.504 76.288q-7.168 3.072-14.336 7.168-23.552 12.288-36.352 31.232t-18.944 40.448-5.632 44.544 3.584 45.568q8.192 52.224 33.792 110.592 11.264-35.84 25.6-68.608 12.288-28.672 29.696-57.856t37.888-48.64q61.44 84.992 156.16 135.68t207.36 50.688 206.848-50.176 155.648-134.144q20.48 19.456 36.864 49.152t28.672 57.344q14.336 32.768 25.6 66.56zM249.856 621.568q13.312-44.032 28.672-79.872 13.312-30.72 29.696-59.392t33.792-37.888 36.864-1.024 35.84 21.504q18.432 15.36 37.888 37.888zM751.616 83.968q8.192 3.072 12.8 8.192t6.144 11.264 1.536 11.264-1.024 8.192q-2.048 5.12-3.072 7.168t-1.024 4.096q-24.576 56.32-92.672 91.136t-162.304 34.816q-47.104 0-89.6-10.24t-76.288-28.16-57.856-43.008-33.28-53.76q0-1.024-1.024-2.048-2.048-6.144 1.024-20.992t18.432-17.92q23.552 28.672 57.344 52.224 29.696 20.48 73.728 36.864t105.472 16.384 107.008-16.384 75.264-36.864q34.816-23.552 59.392-52.224zM683.008 444.416q17.408 9.216 33.792 37.888t29.696 59.392q15.36 35.84 28.672 79.872l-202.752-118.784q19.456-22.528 37.888-37.888 16.384-13.312 35.84-21.504t36.864 1.024z"  horiz-adv-x="1024" />

    
    <glyph glyph-name="face-zhayan" unicode="&#58974;" d="M512 832.512q93.184 0 174.592-35.328t142.336-95.744 96.256-142.336 35.328-174.08q0-93.184-35.328-174.592t-96.256-142.336-142.336-96.256-174.592-35.328q-92.16 0-174.08 35.328t-142.336 96.256-95.744 142.336-35.328 174.592q0 92.16 35.328 174.08t95.744 142.336 142.336 95.744 174.08 35.328zM670.72 643.072q-34.816 0-58.88-28.672t-24.064-69.632q0-41.984 24.064-70.656t58.88-28.672 58.88 28.672 24.064 70.656q0 40.96-24.064 69.632t-58.88 28.672zM253.952 449.536l192.512 0 0 63.488-192.512 0 0-63.488zM765.952 257.024q1.024 2.048 1.024 7.168t-1.536 11.264-6.144 11.264-12.8 8.192q-23.552-28.672-58.368-51.2-29.696-19.456-75.264-35.328t-107.008-15.872-104.448 15.872-72.704 35.328q-33.792 22.528-57.344 51.2-8.192-2.048-12.288-7.168t-6.144-11.264-2.048-11.264 1.024-8.192q1.024-1.024 0.512-1.536t0.512-1.536q9.216-27.648 32.768-51.712t57.344-41.984 76.288-27.648 89.6-9.728q93.184 0 160.768 33.792t92.16 89.088q0 2.048 1.024 4.096t3.072 7.168z"  horiz-adv-x="1024" />

    
    <glyph glyph-name="face-shengqi" unicode="&#58975;" d="M512 832.512q93.184 0 174.592-35.328t142.336-95.744 96.256-142.336 35.328-174.08q0-93.184-35.328-174.592t-96.256-142.336-142.336-96.256-174.592-35.328q-92.16 0-174.08 35.328t-142.336 96.256-95.744 142.336-35.328 174.592q0 92.16 35.328 174.08t95.744 142.336 142.336 95.744 174.08 35.328zM247.808 621.568q13.312-43.008 28.672-78.848 13.312-30.72 29.696-59.904t33.792-37.376q17.408-9.216 36.864-1.536t35.84 20.992q18.432 15.36 37.888 38.912zM749.568 83.968q8.192 3.072 12.8 8.192t6.144 11.264 1.536 11.776-1.024 7.68q-2.048 8.192-5.12 11.264-12.288 28.672-35.84 51.712t-56.32 39.936-73.728 26.112-88.064 9.216-89.6-10.24-76.288-28.672-57.856-43.008-33.28-53.248q-1.024-1.024-1.024-3.072-2.048-6.144 1.024-20.48t18.432-18.432q23.552 29.696 57.344 53.248 29.696 20.48 73.728 36.864t105.472 16.384 107.008-16.384 75.264-36.864q34.816-23.552 59.392-53.248zM680.96 445.44q17.408 8.192 33.792 37.376t29.696 59.904q15.36 35.84 28.672 78.848l-202.752-117.76q19.456-23.552 37.888-38.912 16.384-13.312 35.84-20.992t36.864 1.536z"  horiz-adv-x="1024" />

    
    <glyph glyph-name="face-ma" unicode="&#58976;" d="M512 832.512q93.184 0 174.592-35.328t142.336-95.744 96.256-142.336 35.328-174.08q0-93.184-35.328-174.592t-96.256-142.336-142.336-96.256-174.592-35.328q-92.16 0-174.08 35.328t-142.336 96.256-95.744 142.336-35.328 174.592q0 92.16 35.328 174.08t95.744 142.336 142.336 95.744 174.08 35.328zM339.968 445.44q17.408-9.216 36.864-1.536t35.84 20.992q18.432 15.36 37.888 38.912l-202.752 117.76q13.312-43.008 28.672-78.848 13.312-30.72 29.696-59.904t33.792-37.376zM509.952 55.296q27.648 0 51.712 10.752t42.496 28.672 28.672 42.496 10.24 52.224-10.24 51.712-28.672 41.984-42.496 28.672-51.712 10.752-51.712-10.752-41.984-28.672-28.672-41.984-10.752-51.712 10.752-52.224 28.672-42.496 41.984-28.672 51.712-10.752zM680.96 445.44q17.408 8.192 33.792 37.376t29.696 59.904q15.36 35.84 28.672 78.848l-202.752-117.76q19.456-23.552 37.888-38.912 16.384-13.312 35.84-20.992t36.864 1.536z"  horiz-adv-x="1024" />

    
    <glyph glyph-name="face-bishi" unicode="&#58977;" d="M510.976 833.536q93.184 0 174.592-35.328t142.336-95.744 96.256-142.336 35.328-174.08q0-93.184-35.328-174.592t-96.256-142.336-142.336-96.256-174.592-35.328q-92.16 0-174.08 35.328t-142.336 96.256-95.744 142.336-35.328 174.592q0 92.16 35.328 174.08t95.744 142.336 142.336 95.744 174.08 35.328zM252.928 514.048l67.584 0q3.072-28.672 10.752-47.104t17.92-18.432 17.92 18.432 10.752 47.104l67.584 0 0 64.512-192.512 0 0-64.512zM701.44 193.536l-384 0 0-63.488 384 0 0 63.488zM765.952 578.56l-192.512 0 0-64.512 67.584 0q3.072-28.672 10.752-47.104t17.92-18.432 17.92 18.432 10.752 47.104l67.584 0 0 64.512z"  horiz-adv-x="1024" />

    
    <glyph glyph-name="face-maimeng" unicode="&#58978;" d="M507.904 177.152q0-2.048-2.048-10.24 0 7.168 1.024 10.24 0 2.048 1.024 4.096l0-4.096zM970.752 792.576q-3.072-28.672-14.336-58.368-9.216-25.6-27.648-55.808t-50.176-57.856q38.912-55.296 60.928-120.832t22.016-138.24q0-93.184-35.328-174.592t-95.744-142.336-142.336-96.256-174.08-35.328q-93.184 0-174.592 35.328t-142.336 96.256-96.256 142.336-35.328 174.592q0 71.68 20.992 136.704t59.904 120.32q-32.768 27.648-51.712 57.856t-28.16 56.832q-11.264 29.696-14.336 59.392 54.272 16.384 103.424 20.48 20.48 1.024 42.496 0t41.984-7.168 37.376-17.408 29.696-29.696q94.208 50.176 206.848 50.176 53.248 0 102.912-11.776t94.72-34.304q10.24 15.36 27.136 25.088t36.864 14.848 42.496 6.144 44.032 0q50.176-3.072 108.544-16.384zM254.976 489.472l192.512 0 0 64.512-192.512 0 0-64.512zM605.184 105.472q45.056 0 66.048 12.8t28.16 31.232 5.632 38.4-1.536 35.328-9.216 20.992-19.968 5.12-19.456-7.168-8.704-16.896q0-20.48-7.168-38.4t-24.576-17.92q-7.168 0-17.408 7.68t-20.48 20.48-18.944 29.184-12.8 33.792q15.36 7.168 25.088 19.456t9.728 28.672q0 22.528-19.456 38.4t-47.104 15.872q-28.672 0-48.128-15.872t-19.456-38.4q0-14.336 7.68-25.6t19.968-19.456q0-18.432-2.56-35.328t-8.704-29.184-16.896-19.968-29.184-7.68q-20.48 0-28.672 3.072t-10.24 9.728 0 15.872 2.048 21.504-10.24 18.432-22.528 6.144-22.528-7.68-10.24-23.04q0-31.744 10.24-56.32 8.192-20.48 28.16-37.888t57.856-17.408q26.624 0 44.544 6.656t28.672 16.384 15.872 20.992 7.168 19.456q0-8.192 3.072-18.944t13.824-19.968 30.208-15.872 52.224-6.656zM768 553.984l-192.512 0 0-64.512 192.512 0 0 64.512z"  horiz-adv-x="1024" />

    
    <glyph glyph-name="face-jingdai" unicode="&#58979;" d="M510.976 831.488q93.184 0 174.592-35.328t142.336-95.744 96.256-142.336 35.328-174.08q0-93.184-35.328-174.592t-96.256-142.336-142.336-96.256-174.592-35.328q-92.16 0-174.08 35.328t-142.336 96.256-95.744 142.336-35.328 174.592q0 92.16 35.328 174.08t95.744 142.336 142.336 95.744 174.08 35.328zM349.184 445.44q41.984 0 71.168 28.672t29.184 70.656-29.184 70.656-71.168 28.672q-20.48 0-38.4-7.68t-31.744-20.992-21.504-31.744-7.68-38.912 7.68-38.912 21.504-31.744 31.744-20.992 38.4-7.68zM669.696 445.44q41.984 0 71.168 28.672t29.184 70.656-29.184 70.656-71.168 28.672q-20.48 0-38.4-7.68t-31.744-20.992-21.504-31.744-7.68-38.912 7.68-38.912 21.504-31.744 31.744-20.992 38.4-7.68zM350.208 590.848q19.456 0 32.768-13.312t13.312-32.768-13.312-33.28-32.768-13.824q-20.48 0-33.792 13.824t-13.312 33.28 13.312 32.768 33.792 13.312zM670.72 595.968q20.48 0 35.84-14.848t15.36-36.352-15.36-36.352-35.84-14.848q-21.504 0-36.864 14.848t-15.36 36.352 15.36 36.352 36.864 14.848z"  horiz-adv-x="1024" />

    
    <glyph glyph-name="face-yun" unicode="&#58980;" d="M510.976 831.488q93.184 0 174.592-35.328t142.336-95.744 96.256-142.336 35.328-174.08q0-93.184-35.328-174.592t-96.256-142.336-142.336-96.256-174.592-35.328q-92.16 0-174.08 35.328t-142.336 96.256-95.744 142.336-35.328 174.592q0 92.16 35.328 174.08t95.744 142.336 142.336 95.744 174.08 35.328zM394.24 544.768l91.136 90.112-46.08 46.08-90.112-91.136-91.136 91.136-45.056-46.08 91.136-90.112-91.136-91.136 45.056-45.056 91.136 90.112 90.112-90.112 46.08 45.056zM714.752 544.768l91.136 90.112-46.08 46.08-90.112-91.136-91.136 91.136-45.056-46.08 91.136-90.112-91.136-91.136 45.056-45.056 91.136 90.112 90.112-90.112 46.08 45.056z"  horiz-adv-x="1024" />

    
    <glyph glyph-name="home2" unicode="&#59007;" d="M942.157 377.967q18.9-18 19.8-39.6t-14.4-36q-17.1-15.3-39.6-14.4t-36 12.6q-4.5 3.6-27.45 25.2t-54.9 51.75-68.4 64.8-68.85 65.25-55.8 53.1-29.7 27.9q-28.8 26.1-56.7 25.2t-54.9-25.2q-9-8.1-33.75-31.05t-57.15-53.55-68.4-63.9-66.6-62.1-52.65-49.05-26.55-23.85q-13.5-10.8-36-11.7t-38.7 13.5q-18 16.2-17.1 39.15t15.3 36.45q5.4 5.4 33.3 31.5t66.6 62.1 83.25 77.4 82.8 77.4 65.7 61.65 31.95 30.15q34.2 33.3 73.8 33.75t67.5-26.55q5.4-4.5 22.5-21.15t41.85-40.5 55.35-53.55 62.1-59.85 61.65-59.85 55.35-53.55 42.3-40.95zM455.257 508.467q22.5 20.7 54 22.05t56.7-22.05q2.7-2.7 16.2-15.3l34.2-31.5q19.8-18.9 44.55-42.3t50.85-46.8q60.3-55.8 135-125.1l0-171q0-19.8-14.85-35.1t-40.05-16.2l-170.1 0 0 139.5q0 29.7-27.9 29.7l-171.9 0q-15.3 0-21.15-9t-5.85-20.7q0-5.4-0.45-27.45t-0.45-47.25l0-64.8-164.7 0q-26.1 0-41.4 11.7t-15.3 33.3l0 179.1q73.8 67.5 134.1 122.4 25.2 23.4 50.4 46.35t45.9 41.85 34.65 31.95 17.55 16.65z"  horiz-adv-x="1029" />

    
    <glyph glyph-name="search2" unicode="&#58981;" d="M903.68 87.36q26.88-30.72 29.28-53.76t-17.76-45.12q-23.04-25.92-50.88-24.48t-53.76 22.56l-161.28 155.52q-43.2-27.84-92.64-43.2t-104.16-15.36q-74.88 0-140.16 28.32t-114.24 77.28-77.28 114.24-28.32 140.16 28.32 140.16 77.28 114.24 114.24 77.28 140.16 28.32 140.16-28.32 114.24-77.28 77.28-114.24 28.32-140.16q0-56.64-16.32-107.52t-46.08-94.08l31.68-31.68q23.04-23.04 48.48-48t46.56-47.04 26.88-27.84zM456.32 203.52q49.92 0 94.08 18.72t76.8 51.36 51.36 76.8 18.72 94.08-18.72 94.08-51.36 76.8-76.8 51.36-94.08 18.72-94.08-18.72-76.8-51.36-51.36-76.8-18.72-94.08 18.72-94.08 51.36-76.8 76.8-51.36 94.08-18.72z"  horiz-adv-x="1024" />

    
    <glyph glyph-name="share2" unicode="&#58982;" d="M682.945 225.795q31.585 0 58.864-11.964t47.377-32.542 32.063-47.857 11.964-58.864-11.964-58.864-32.063-47.377-47.377-32.063-58.864-11.964-58.864 11.964-47.857 32.063-32.543 47.377-11.964 58.864q0 9.571 0.957 17.707t2.872 16.749l-151.226 127.298q-13.4-6.7-28.714-9.571t-31.585-2.872q-31.585 0-58.864 11.964t-47.857 32.063-32.542 47.377-11.964 58.864 11.964 58.864 32.542 47.857 47.857 32.543 58.864 11.964q35.414 0 67.957-16.271l143.57 133.998q-3.829 12.442-3.829 30.628 0 31.585 11.964 58.864t32.542 47.377 47.857 32.063 58.864 11.964 58.864-11.964 47.377-32.063 32.063-47.377 11.964-58.864-11.964-58.864-32.063-47.857-47.377-32.543-58.864-11.964q-22.014 0-41.635 5.743t-35.892 16.271l-136.869-127.298q5.743-22.014 5.743-43.071 0-26.799-8.614-49.771l140.698-118.684q17.228 9.571 36.371 14.836t40.199 5.264z"  horiz-adv-x="1024" />

    
    <glyph glyph-name="face" unicode="&#58984;" d="M512 831.488q92.16 0 174.08-35.328t142.336-95.744 95.744-142.336 35.328-174.08q0-93.184-35.328-174.592t-95.744-142.336-142.336-95.744-174.08-34.816q-93.184 0-174.592 34.816t-142.336 95.744-96.256 142.336-35.328 174.592q0 92.16 35.328 174.08t96.256 142.336 142.336 95.744 174.592 35.328zM673.792 609.28q-29.696 0-50.176-24.576t-20.48-59.392q0-35.84 20.48-60.416t50.176-24.576 50.176 24.576 20.48 60.416q0 34.816-20.48 59.392t-50.176 24.576zM342.016 607.232q-28.672 0-48.64-24.576t-19.968-59.392q0-35.84 19.968-59.904t48.64-24.064 49.152 24.064 20.48 59.904q0 34.816-20.48 59.392t-49.152 24.576zM516.096 51.2q54.272 0 102.912 19.456t87.552 53.248 66.048 78.848 38.4 96.256l0 5.12q0 8.192-6.144 14.848t-15.36 6.656l-547.84 0q-9.216 0-16.896-6.656t-5.632-14.848q2.048-10.24 3.072-14.336t2.048-6.144q13.312-49.152 40.96-91.648t65.024-73.728 84.48-49.152 101.376-17.92z"  horiz-adv-x="1024" />

    
    <glyph glyph-name="wuliu" unicode="&#58985;" d="M993.28 542.72q38.912-53.248 58.368-113.664t27.136-118.272 7.168-108.032-0.512-81.92q0-6.144-1.024-14.848t-3.584-17.408-6.144-14.848-9.728-6.144l-41.984 0q0 34.816-10.752 59.392t-28.672 39.936-41.984 22.528-50.688 7.168-49.152-10.24-39.424-27.648-26.624-40.448-9.728-48.64l-18.432 0q-18.432 0-31.744 13.312t-13.312 31.744l0 1.024 0 492.544q0 11.264 7.68 26.112t18.944 15.872q33.792 3.072 70.656-2.56t72.704-18.944 67.584-34.816 53.248-51.2zM976.896 322.56q12.288 0 21.504 0.512t9.216 12.8q0 2.048-0.512 3.072t-0.512 3.072q-11.264 50.176-24.576 96.768t-45.056 79.36q-20.48 19.456-44.032 28.16t-44.544 11.264-35.328 1.536-15.36-1.024q-13.312 0-22.528-9.728t-9.216-20.992l0-93.184q0-40.96 1.024-91.136l0-1.024q0-5.12 7.168-12.288t14.336-7.168l188.416 0zM636.928 775.168l2.048-666.624q0-17.408-11.776-28.672t-28.16-11.264l-279.552 0q0 60.416-30.72 95.232t-96.256 34.816q-62.464 0-95.744-32.256t-33.28-97.792l-23.552 0q-17.408 0-28.672 10.24t-11.264 29.696l0 532.48q0 24.576 9.216 48.128t26.112 43.008 39.424 31.232 49.152 11.776l513.024 0zM896 132.096q26.624 0 46.08-19.456t19.456-46.08q0-27.648-19.456-47.104t-46.08-19.456q-27.648 0-46.592 19.456t-18.944 47.104q0 26.624 18.944 46.08t46.592 19.456zM191.488 133.12q27.648 0 46.592-19.456t18.944-47.104q0-26.624-18.944-46.08t-46.592-19.456-46.592 19.456-18.944 46.08q0 27.648 18.944 47.104t46.592 19.456z"  horiz-adv-x="1086" />

    
    <glyph glyph-name="dianpu" unicode="&#58986;" d="M1018.88 526.336q5.12-35.84-11.264-68.608t-53.248-53.248l0-340.992q0-29.696-10.24-53.76t-28.16-41.472-40.96-27.136-48.64-9.728l-575.488 0q-27.648 0-51.2 9.728t-41.472 27.136-27.648 41.472-9.728 53.76l0 340.992q-35.84 21.504-53.248 53.76t-11.264 68.096l51.2 246.784q5.12 24.576 24.064 41.472t44.544 16.896l204.8 0 317.44 0 197.632 0q30.72 0 50.688-16.896t25.088-41.472zM888.832 374.784q-14.336-3.072-29.696-3.072-32.768 0-61.44 11.776t-50.688 32.256-34.816 48.128-13.824 59.392q-1.024-31.744-13.312-59.392t-33.792-48.128-50.176-32.256-61.44-11.776-61.952 12.288-50.688 33.28-33.792 49.152-12.288 59.904q0-31.744-13.312-59.904t-35.84-49.152-52.736-33.28-62.976-12.288q-15.36 0-30.72 3.072l0-118.784q0-12.288 5.632-24.576t14.848-21.504 20.48-14.848 22.528-5.632l577.536 0q10.24 0 21.504 5.12t20.48 13.312 14.848 19.968 5.632 24.064l0 122.88z"  horiz-adv-x="1024" />

    
    <glyph glyph-name="chexiao" unicode="&#58987;" d="M894.976 321.536q0-78.848-29.696-148.48t-81.408-123.392-121.856-88.064-151.04-41.472q-5.12-1.024-9.216-1.536t-9.216-0.512l-177.152 0q-17.408 0-34.304 6.144t-30.208 16.896-22.016 25.088-8.704 29.696 8.192 29.696 21.504 24.576 29.696 16.384 33.792 6.144l158.72-1.024q54.272 0 102.4 19.968t83.968 53.76 56.32 79.36 20.48 97.792q0 49.152-18.432 92.16t-50.688 76.8-75.264 54.784-93.184 26.112q-2.048 0-2.56-0.512t-2.56-0.512l-162.816 0 0-80.896q0-17.408-13.824-25.6t-44.544 10.24q-8.192 5.12-26.112 17.92t-41.984 30.208-50.688 36.864l-51.2 38.912q-15.36 12.288-26.624 22.016t-11.264 24.064q0 12.288 12.8 25.6t29.184 26.624q18.432 15.36 44.032 35.84t50.688 39.936 45.056 35.328 28.16 22.016q24.576 17.408 39.936 7.168t16.384-30.72l0-81.92 162.816 0q5.12 0 10.752-1.024t10.752-2.048q79.872-8.192 149.504-41.984t121.344-87.552 80.896-123.392 29.184-147.456z"  horiz-adv-x="1024" />

    
    <glyph glyph-name="zhongzuo" unicode="&#58988;" d="M108.544 323.584q0 77.824 29.184 147.456t80.896 123.392 121.344 87.552 149.504 41.984q10.24 3.072 21.504 3.072l162.816 0 0 81.92q1.024 20.48 16.384 30.72t39.936-7.168q7.168-5.12 27.648-20.992t45.568-35.84 50.688-40.448 44.032-35.84q16.384-13.312 28.672-26.624t12.288-25.6q0-14.336-10.752-24.064t-26.112-22.016l-51.2-38.912q-26.624-19.456-50.688-36.864t-42.496-30.208-26.624-16.896q-15.36-9.216-26.112-11.776t-17.408 0.512-10.24 10.24-3.584 15.36l0 81.92-162.816 0-5.12 0q-50.176-5.12-93.184-26.112t-75.264-54.784-50.688-76.8-18.432-92.16q0-52.224 20.48-97.792t56.32-79.36 83.968-53.76 102.4-19.968l158.72 1.024q16.384 0 33.28-6.144t29.696-16.384 20.992-24.064 8.192-30.208q0-15.36-8.192-29.696t-22.016-24.576-30.72-16.384-33.28-6.144l-177.152 0-9.216 0q-4.096 0-9.216 1.024-80.896 7.168-151.04 41.472t-121.856 88.064-81.408 123.392-29.696 148.48z"  horiz-adv-x="1024" />

    
    <glyph glyph-name="zan" unicode="&#58989;" d="M899.84 428.16q0-15.36-6.24-29.28t-16.32-24.48-24.48-16.8-29.76-6.24l-27.84 0q31.68 0 54.24-21.12t22.56-51.84-22.56-52.8-54.24-22.08l-28.8 0q32.64 0 55.2-22.08t22.56-52.8q0-15.36-8.64-29.28t-23.52-24-34.08-15.84-39.36-5.76q31.68 0 51.36-22.56t19.68-53.28q0-19.2-11.04-33.12t-27.84-23.04-36-13.44-34.56-4.32l-402.24 0q-30.72 0-57.12 10.08t-46.08 28.8-30.72 44.64-11.04 58.56l0 293.76q0 19.2 1.44 38.4t7.2 36 17.76 30.72 32.16 22.56q19.2 7.68 43.68 23.04t50.88 36.48 51.36 47.52 45.12 55.68 32.16 60.96 12 64.32q0.96 28.8 7.68 48t17.76 31.2 24 17.28 26.4 5.28q34.56 0 58.08-21.12t33.12-69.12q1.92-41.28-4.8-87.36-5.76-39.36-20.16-86.4t-44.16-93.12l278.4 0q31.68 0 54.24-20.64t22.56-51.36z"  horiz-adv-x="1024" />

    
    <glyph glyph-name="cai" unicode="&#58990;" d="M908.451 320.986q0-30.879-22.911-51.3t-54.786-20.42l-278.911 0q29.883-46.817 44.825-94.132t19.922-86.163q5.977-45.821 4.981-87.658-9.961-47.813-33.37-69.23t-58.272-21.416q-12.949 0-26.397 5.479t-23.907 17.432-17.432 31.377-7.969 48.311q0 32.872-12.451 64.747t-32.374 60.763-45.323 55.284-51.3 47.315-50.802 36.358-43.829 23.409q-20.918 8.965-32.374 22.911t-17.432 31.377-7.471 36.358-1.494 37.852l0 294.848q0 32.872 11.455 58.77t30.879 44.825 45.821 28.887 57.276 9.961l402.428 0q15.938 0 35.362-4.482t35.86-13.447 27.891-23.409 11.455-33.37q0-31.875-19.922-53.79t-51.798-21.914q20.918 0 39.844-5.977t33.868-15.938 23.409-23.409 8.467-29.385q0-31.875-22.412-53.79t-54.288-21.914l27.891 0q31.875 0 54.786-21.416t22.911-53.292-22.911-52.296-54.786-20.42l27.891 0q15.938 0 30.381-6.475t24.903-16.934 16.436-24.405 5.977-29.883z"  horiz-adv-x="1024" />

    
    <glyph glyph-name="yuyin3" unicode="&#58991;" d="M764.928 448.512l-508.928 0 0 163.84q0 57.344 19.968 108.544t54.272 89.6 80.896 60.416 99.84 22.016 99.84-22.016 80.896-60.416 53.76-89.6 19.456-108.544l0-163.84zM510.976 63.488q-52.224 0-98.816 15.36t-80.896 43.52-54.784 68.608-20.48 90.624l0 70.656 0 30.72 508.928 0 0-101.376q0-40.96-19.968-79.872t-54.784-69.632-80.896-49.664-98.304-18.944zM965.632 384q29.696 0 43.008-7.168t13.312-24.576q0-22.528-13.824-28.16t-35.328-5.632l-17.408 0q-5.12-49.152-17.408-98.304-11.264-43.008-30.208-91.648t-48.64-91.648q-57.344-78.848-148.48-121.344t-200.704-42.496q-108.544 0-195.072 34.304t-154.112 116.224q-33.792 40.96-53.248 92.16t-29.696 96.256q-11.264 52.224-15.36 105.472l-12.288 0q-33.792 1.024-41.472 9.216t-7.68 28.672q0 18.432 16.384 23.552t41.984 5.12q25.6 1.024 46.08 0.512t32.768 0.512q21.504 0 32.768-3.072t15.872-9.216 4.608-17.408l0-25.6q0-9.216-3.584-28.672t-1.536-47.616 12.288-65.536 37.888-81.408q26.624-44.032 64.512-67.072t76.8-32.768 74.24-10.24 57.856-0.512q35.84 1.024 70.144 2.56t65.536 9.728 59.904 25.088 54.272 49.664q27.648 34.816 41.472 68.608t19.456 63.488 6.144 55.808 1.536 47.616q1.024 27.648 3.072 41.472t8.192 18.944 17.408 5.12l29.696 0 78.848 0z"  horiz-adv-x="1024" />

    
    <glyph glyph-name="cart2-selected" unicode="&#58992;" d="M367.1 145.5q17.1 0 32.4-6.3t27-17.55 18-26.55 6.3-32.4-6.3-32.4-18-26.55-27-18-32.4-6.75q-18 0-32.85 6.75t-26.55 18-18 26.55-6.3 32.4 6.3 32.4 18 26.55 26.55 17.55 32.85 6.3zM741.5 143.7q17.1 0 32.85-6.3t27-17.55 18-26.55 6.75-32.4-6.75-32.4-18-26.55-27-18-32.85-6.75-32.4 6.75-26.55 18-18 26.55-6.75 32.4 6.75 32.4 18 26.55 26.55 17.55 32.4 6.3zM892.7 654.9q25.2 0 39.15-6.75t19.8-16.65 5.4-21.15-3.15-19.35-11.25-33.3-19.35-55.35-21.15-59.85-15.75-46.8q-11.7-36-29.7-49.95t-44.1-13.95l-472.5 0 13.5-81 453.6 0q43.2 0 43.2-36.9 0-18-8.55-31.05t-33.75-13.05l-471.6 0q-18 0-30.15 8.1t-20.25 21.15-13.05 28.35-7.65 28.8q-0.9 5.4-4.95 26.1t-9.9 51.75-13.05 69.3-14.4 76.95q-17.1 90.9-38.7 202.5l-67.5 0q-13.5 0-22.5 6.75t-14.85 16.2-8.1 20.25-2.25 19.8q0 18 12.15 29.7t32.85 11.7l90.9 0q18 0 28.8-5.4t17.1-13.5 9-17.1 4.5-15.3q1.8-7.2 3.6-20.25t3.6-26.55q2.7-16.2 5.4-34.2l615.6 0z"  horiz-adv-x="1024" />

    
    <glyph glyph-name="weizhi" unicode="&#58993;" d="M895.616384 548.187812q0-10.22977-0.511489-19.436563t-1.534466-19.436563q-9.206793-84.907093-37.338661-163.164835t-71.096903-150.377622-99.228771-138.613387-121.734266-127.872128q-9.206793-11.252747-23.528472-11.252747-15.344655 0-24.551449 11.252747-65.470529 61.378621-122.245754 128.895105t-100.251748 141.170829-71.608392 152.935065-36.315684 165.210789q0 8.183816-0.511489 15.344655t-0.511489 15.344655q0 71.608392 28.131868 135.032967t76.211788 110.481518 113.038961 74.677323 138.613387 27.62038 138.101898-27.62038 112.527473-74.677323 76.211788-110.481518 28.131868-135.032967zM540.643357 388.603397q33.758242 0 63.424575 12.787213t51.66034 34.26973 34.781219 50.637363 12.787213 61.89011-12.787213 61.89011-34.781219 50.637363-51.66034 34.26973-63.424575 12.787213-63.424575-12.787213-52.171828-34.26973-35.292707-50.637363-12.787213-61.89011 12.787213-61.89011 35.292707-50.637363 52.171828-34.26973 63.424575-12.787213z"  horiz-adv-x="1024" />

    
    <glyph glyph-name="face-ku" unicode="&#59016;" d="M517.12 842.752q95.232 0 179.2-36.352t145.92-98.304 98.304-145.92 36.352-179.2-36.352-179.2-98.304-145.92-145.92-98.304-179.2-36.352-179.2 36.352-145.92 98.304-98.304 145.92-36.352 179.2 36.352 179.2 98.304 145.92 145.92 98.304 179.2 36.352zM663.552 634.88q-15.36 0-28.16-6.656t-23.04-18.432-15.872-27.648-5.632-33.28q0-35.84 21.504-61.44t51.2-25.6 51.2 25.6 21.504 61.44q0 17.408-5.632 33.28t-15.872 27.648-23.04 18.432-28.16 6.656zM373.76 634.88q-29.696 0-50.688-25.088t-20.992-60.928 20.992-61.44 50.688-25.6 50.176 25.6 20.48 61.44-20.48 60.928-50.176 25.088zM520.192 293.888q-51.2 0-97.28-9.728t-82.944-27.648-62.464-41.472-35.84-51.2q-1.024-1.024-1.024-2.048-1.024-3.072-1.024-8.704t2.56-11.776 7.168-11.264 12.8-6.144q25.6 27.648 62.464 50.176 31.744 19.456 79.36 35.328t114.176 15.872q67.584 0 116.736-15.872t81.92-35.328q37.888-22.528 63.488-50.176 17.408 5.12 19.968 18.944t0.512 18.944-3.072 7.168-1.024 3.072q-26.624 55.296-100.352 88.576t-176.128 33.28z"  horiz-adv-x="1024" />

    
    <glyph glyph-name="down" unicode="&#58944;" d="M926.705 74.667q5.4-21.6-2.25-40.95t-23.85-34.2-39.6-23.4-50.4-8.55q-170.1-0.9-304.2-0.9l-306 0q-32.4 0-57.15 11.7t-39.6 28.8-19.8 37.35 1.35 36.45q5.4 12.6 10.8 26.1 4.5 11.7 10.8 26.55t13.5 30.15l34.2 82.8 102.6 0-38.7-113.4 579.6 0-38.7 113.4 98.1 0q18.9-45.9 34.2-82.8 6.3-16.2 12.6-31.5t11.25-27.45 8.1-20.7 3.15-9.45zM474.005 241.167q-17.1 19.8-39.15 49.5t-45.45 61.2-46.35 62.1-40.95 53.1q-20.7 24.3-16.2 40.05t30.6 15.75q14.4-0.9 38.7 0.45t40.5 1.35q18 0 22.5 10.8t4.5 28.8q0 19.8-0.45 43.65t-0.45 49.05-0.45 49.5-0.45 45q0 9 1.35 18.9t6.3 18 14.4 13.5 25.65 5.4q18.9 0 34.65 0.45t36.45 0.45q29.7 0 40.05-13.95t11.25-44.55l0-35.1q0-20.7 0.45-44.1t0.45-46.8l0-42.3q0-26.1 5.4-41.85t24.3-14.85q13.5 0 32.85-0.9t33.75-0.9q24.3 0 31.05-13.05t-9.45-33.75q-17.1-21.6-39.6-52.2t-46.35-63.45-46.8-63.9-40.95-53.55q-16.2-20.7-31.05-21.15t-31.05 19.35z"  horiz-adv-x="1025" />

    
    <glyph glyph-name="cart2-man" unicode="&#58994;" d="M366.2 124.8q17.1 0 32.4-6.3t26.55-17.55 18-26.55 6.75-32.4-6.75-32.4-18-26.55-26.55-18-32.4-6.75q-18 0-33.3 6.75t-26.55 18-18 26.55-6.75 32.4 6.75 32.4 18 26.55 26.55 17.55 33.3 6.3zM740.6 123q17.1 0 32.85-6.3t27-17.55 18-26.55 6.75-32.4-6.75-32.4-18-26.55-27-18-32.85-6.75-32.4 6.75-26.55 18-18 26.55-6.75 32.4 6.75 32.4 18 26.55 26.55 17.55 32.4 6.3zM891.8 634.2q25.2 0 39.15-6.75t19.8-16.65 5.4-21.15-3.15-19.35-11.7-33.3-19.35-55.35-20.7-59.85-16.65-46.8q-11.7-36-29.25-49.95t-43.65-13.95l-472.5 0 12.6-81 454.5 0q43.2 0 43.2-36.9 0-18-8.55-31.05t-33.75-13.05l-471.6 0q-18 0-30.15 8.1t-20.25 21.15-13.05 28.35-7.65 28.8q-0.9 5.4-4.95 26.1t-9.9 51.75-13.05 69.3-14.4 76.95q-17.1 90.9-38.7 202.5l-67.5 0q-13.5 0-22.5 6.75t-14.85 16.2-8.1 20.25-2.25 19.8q0 18 12.15 29.7t32.85 11.7l90.9 0q18 0 28.8-5.4t17.1-13.5 9-17.1 4.5-15.3q1.8-7.2 3.6-20.25t3.6-26.55q2.7-16.2 5.4-34.2l615.6 0zM824.3 663l-329.4 0 118.8 118.8q20.7 20.7 45.45 21.15t45.45-20.25z"  horiz-adv-x="1024" />

    
    <glyph glyph-name="card2-kong" unicode="&#58995;" d="M375.833 139.2q17.1 0 32.4-6.3t26.55-17.55 18-26.55 6.75-32.4-6.75-32.4-18-26.55-26.55-18-32.4-6.75q-18 0-33.3 6.75t-26.55 18-18 26.55-6.75 32.4 6.75 32.4 18 26.55 26.55 17.55 33.3 6.3zM750.233 137.4q17.1 0 32.85-6.3t27-17.55 18-26.55 6.75-32.4-6.75-32.4-18-26.55-27-18-32.85-6.75-32.4 6.75-26.55 18-18 26.55-6.75 32.4 6.75 32.4 18 26.55 26.55 17.55 32.4 6.3zM901.433 648.6q25.2 0 39.15-6.75t19.8-16.65 5.4-21.15-3.15-19.35-11.7-33.3-19.35-55.35-20.7-59.85-16.65-46.8q-11.7-36-29.25-49.95t-43.65-13.95l-472.5 0 12.6-81 454.5 0q43.2 0 43.2-36.9 0-18-8.55-31.5t-33.75-12.6l-471.6 0q-18 0-30.15 8.1t-20.25 21.15-13.05 28.35-7.65 28.8q-0.9 5.4-4.95 26.1t-9.9 51.75-13.05 69.3-14.4 76.95q-17.1 90.9-38.7 202.5l-67.5 0q-13.5 0-22.5 6.75t-14.85 16.2-8.1 20.25-2.25 19.8q0 18 12.15 29.7t32.85 10.8l90.9 0q18 0 28.8-5.4t17.1-13.5 9-16.65 4.5-14.85q1.8-7.2 3.6-20.25t3.6-26.55q2.7-16.2 5.4-34.2l615.6 0zM868.133 568.5l-563.4 1.8 31.5-162.9 470.7-0.9z"  horiz-adv-x="1028" />

    
    <glyph glyph-name="luyin" unicode="&#58905;" d="M514.048 768q79.872 0 149.504-30.208t121.856-82.432 82.432-122.368 30.208-150.016q0-78.848-30.208-148.48t-82.432-121.856-121.856-82.432-149.504-30.208-149.504 30.208-121.856 82.432-82.432 121.856-30.208 148.48q0 79.872 30.208 150.016t82.432 122.368 121.856 82.432 149.504 30.208z"  horiz-adv-x="1024" />

    
    <glyph glyph-name="html" unicode="&#59039;" d="M1664.999 744q30.6 0 58.05-11.7t48.15-31.95 32.4-47.7 11.7-58.05l0-432q0-31.5-11.7-58.5t-32.4-47.7-48.15-32.4-58.05-11.7l-1392.3 0q-31.5 0-58.5 11.7t-47.7 32.4-32.4 47.7-11.7 58.5l0 432q0 30.6 11.7 58.05t32.4 47.7 47.7 31.95 58.5 11.7l1392.3 0zM573.299 581.1l-54.9 0 0-171-169.2 0 0 171-57.6 0 0-398.7 57.6 0 0 165.6 169.2 0 0-165.6 54.9 0 0 398.7zM912.599 579.3l-281.7 0 0-60.3 112.5 0 0-337.5 56.7 0 0 337.5 112.5 0 0 60.3zM1363.499 579.3l-89.1 0-103.5-292.5-112.5 292.5-88.2 0 0-398.7 54 0 0 290.7 106.2-290.7 67.5 0 109.8 285.3 0-285.3 55.8 0 0 398.7zM1702.799 239.1l-170.1 0 0 338.4-55.8 0 0-396.9 225.9 0 0 58.5z"  horiz-adv-x="1927" />

    
    <glyph glyph-name="css" unicode="&#59040;" d="M1482.95 768q32.64 0 61.92-12.48t50.88-34.08 34.08-50.88 12.48-62.88l0-459.84q0-33.6-12.48-62.4t-34.08-50.88-50.88-34.56-61.92-12.48l-1245.12 0q-33.6 0-62.4 12.48t-50.88 34.56-34.56 50.88-12.48 62.4l0 459.84q0 33.6 12.48 62.88t34.56 50.88 50.88 34.08 62.4 12.48l1245.12 0zM563.27 201.6q45.12 35.52 62.4 103.68l-62.4 19.2q-11.52-52.8-39.84-70.56t-74.4-17.76q-3.84 0-23.52 1.92t-42.24 15.36-40.8 43.68-18.24 87.84q0 6.72 4.32 29.28t17.76 47.04 38.88 43.68 68.64 19.2q41.28 0 61.44-16.8t36.48-52.32l67.2 20.16q-17.28 58.56-59.52 89.28-42.24 31.68-104.64 31.68-53.76 0-100.8-24.96-47.04-26.88-71.04-73.92-24.96-48-24.96-113.28 0-58.56 22.08-111.36 21.12-49.92 64.32-78.72 40.32-27.84 109.44-27.84 65.28 0 109.44 35.52zM903.11 412.8q-53.76 15.36-76.32 28.32t-22.56 35.04q0 25.92 22.56 40.32t73.44 14.4q24 0 38.4-3.84t24-11.52 15.84-19.68 12.96-28.32l52.8 4.8q0 2.88-2.88 23.04t-17.28 42.24-44.16 40.32-82.56 18.24q-55.68 0-87.36-13.44t-47.52-32.16-20.16-37.92-4.32-30.72q0-34.56 19.2-57.6t44.16-37.44 48.96-21.12 34.56-9.6q30.72-9.6 49.92-19.2t29.28-18.72 13.44-17.28 3.36-14.88l0-22.08q0-10.56-6.72-18.24t-23.04-12.48-48.96-4.8q-39.36 0-60.96 8.16t-31.68 19.68-11.52 25.44-1.44 25.44l-61.44 0q0-19.2 2.88-43.68t19.68-46.08 52.8-36.48 102.24-14.88q18.24 0 41.28 2.88t42.24 14.88 32.64 36.96 13.44 70.08q0 9.6-2.4 24.48t-15.84 32.16-41.28 34.56-79.68 30.72zM1324.55 412.8q-33.6 7.68-52.32 14.4t-28.32 13.92-12 15.36-2.4 19.68q0 25.92 20.64 39.36t71.52 13.44q24 0 36.96-3.36t20.16-11.04 11.52-19.2 12-27.84l63.36 4.8q0 2.88-2.88 23.04t-17.28 42.24-44.16 40.32-82.56 18.24q-54.72 0-86.88-13.44t-48-32.16-20.16-37.92-4.32-30.72q0-34.56 19.2-59.52t44.16-40.8 48.96-24 34.56-11.04q35.52-9.6 54.24-17.76t26.4-15.36 8.16-13.92 0.48-13.44q0-11.52-1.92-20.64t-9.6-15.84-22.08-10.08-38.4-3.36q-39.36 0-59.52 10.08t-28.8 22.56-9.12 24-0.48 14.4l-69.12 0q0-4.8 3.36-27.36t20.16-48 52.32-45.6 101.76-20.16q18.24 0 41.28 5.28t42.24 19.2 32.64 37.92 13.44 62.4q0 9.6-0.48 24.96t-12.48 32.64-40.8 34.08-85.44 30.24z"  horiz-adv-x="1670" />

    
    <glyph glyph-name="android" unicode="&#59042;" d="M887.594 528.946q20.515 0 34.787-12.934t14.272-31.665l0-263.132q0-17.839-14.272-30.773t-34.787-12.934l-16.056 0q-20.515 0-34.787 12.934t-14.272 30.773l0 263.132q0 18.731 14.272 31.665t34.787 12.934l16.056 0zM164.205 528.946q20.515 0 33.895-12.934t13.38-31.665l0-263.132q0-17.839-13.38-30.773t-33.895-12.934l-16.056 0q-20.515 0-34.787 12.934t-14.272 30.773l0 263.132q0 18.731 14.272 31.665t34.787 12.934l16.056 0zM656.574 735.883q16.056-7.136 33.448-19.624t33.448-29.436 28.097-37.017 17.393-42.368l-506.64 0q14.272 47.274 45.045 77.602t61.992 48.167l-45.49 71.358q-1.784 1.784-0.445 6.689t9.366 10.258q7.136 6.244 13.38 5.798t8.028-2.229l46.383-73.142q24.975 11.595 52.627 17.839t57.086 6.244q60.654 0 113.281-24.975l47.274 74.033q1.784 1.784 6.689 1.784t14.717-5.351q8.92-4.46 10.258-8.028t-0.445-5.351zM407.713 659.173q11.595 0 19.624 8.028t8.028 19.624-8.028 19.624-19.624 8.028-19.624-8.028-8.028-19.624 8.028-19.624 19.624-8.028zM627.139 662.741q11.595 0 19.624 8.028t8.028 19.624-8.028 19.624-19.624 8.028-19.624-8.028-8.028-19.624 8.028-19.624 19.624-8.028zM768.962 551.244l0.892-401.388q0-19.624-12.934-33.003t-31.665-13.38l-12.487 0 0-124.876q0-17.839-12.934-31.219t-31.665-13.38l-25.867 0q-17.839 0-30.773 13.38t-12.934 31.219l0 124.876-164.123 0 0-124.876q0-17.839-12.934-31.219t-31.665-13.38l-25.868 0q-17.839 0-30.773 13.38t-12.934 31.219l0 124.876-9.812 0q-18.731 0-31.665 13.38t-12.934 33.003l0 401.388 503.073 0z"  horiz-adv-x="1024" />

    
    <glyph glyph-name="github" unicode="&#59089;" d="M340.443 73.445q0 8.084 8.084 8.084t8.084-8.084-8.084-8.084-8.084 8.084zM303.616 82.428q0 8.084 8.084 8.084 8.982 0 8.982-8.084 0-8.982-8.982-8.982-8.084 0-8.084 8.982zM510.204 812.667q93.413 0 175.598-35.479t143.263-96.557 96.557-143.263 35.479-175.598q0-72.754-22.006-139.671t-61.078-122.155-93.862-97.006-119.461-65.12q-9.88-1.796-22.455-0.898t-15.269 16.167q-1.796 10.778-3.143 28.743t-1.796 36.826-0.898 35.928-0.449 25.15-3.143 20.659-7.186 24.251-8.084 21.108-5.839 12.126q-1.796 1.796 12.575 4.043t36.377 8.533 48.054 17.964 48.503 30.987 37.275 47.605 14.82 68.713q0 61.078-7.186 95.21t-15.269 51.197q-9.88 19.761-22.455 25.15 5.39 29.641 8.084 53.892 1.796 20.659 0.449 39.521t-11.227 24.251q-9.88 4.492-29.192-1.796t-39.97-16.167q-23.353-11.677-50.3-28.743-13.473 4.492-29.641 8.084-14.371 3.593-34.132 6.288t-44.012 2.694-46.258-2.694-39.072-5.39q-19.761-3.593-36.826-8.084-26.947 15.269-50.3 26.048-20.659 9.88-40.419 16.167t-28.743 2.694q-9.88-4.492-12.126-22.904t-1.347-39.97q0.898-25.15 4.492-55.688-12.575-13.473-22.455-32.335-8.982-16.167-15.718-39.521t-6.737-52.095q0-41.318 8.533-72.754t22.904-54.341 32.784-38.623 37.275-25.599q44.91-23.353 102.396-26.947-7.186-8.084-12.575-15.269-4.492-6.288-8.084-12.126t-3.593-8.533-0.449-6.737-1.347-8.533l-1.796-8.982q-8.982-3.593-18.862-6.288-8.084-2.694-17.964-4.492t-19.761-1.796-24.251 10.329-29.192 23.802-26.947 26.498-17.515 18.413q-5.39 4.492-14.371 7.635t-17.964 4.941-16.167 2.245-9.88-0.449q-5.39-2.694-8.084-7.635t4.492-7.635q3.593-1.796 10.328-6.737t13.922-11.677 13.473-13.473 8.982-11.228 8.084-19.761 17.515-31.437 32.335-28.743 54.341-12.575q23.353 0 35.479 0.449t18.413 1.347l0-69.162q0-5.39-1.347-12.126t-4.941-11.677-9.88-7.186-16.167 0.449q-1.796 0.898-5.39 0.898-65.569 23.353-120.359 65.12t-94.76 97.455-62.425 122.604-22.455 140.569q0 93.412 35.479 175.598t96.557 143.263 143.712 96.557 176.048 35.479zM396.132 40.212q3.592-0.898 5.39-1.796 4.492-2.694-5.39-3.593l0 5.39zM378.168 79.733q0 8.982 8.084 8.982t8.084-8.982q0-8.084-8.084-8.084t-8.084 8.084zM218.287 169.553q0 5.39 6.288 5.39t6.288-5.39q0-6.288-6.288-6.288t-6.288 6.288zM278.467 101.29q0 8.084 8.084 8.084t8.084-8.084q0-8.982-8.084-8.982t-8.084 8.982zM244.335 156.08q6.288 0 6.288-6.288t-6.288-6.288-6.288 6.288 6.288 6.288zM253.317 126.44q0 8.084 8.084 8.084t8.084-8.084q0-8.982-8.084-8.982t-8.084 8.982z"  horiz-adv-x="1028" />

    
    <glyph glyph-name="html5" unicode="&#59090;" d="M92.001 824.001l833.28 0-68.16-791.04-353.28-108.48-336 108.48zM759.201 584.961l20.16 120-536.64 0.96 34.56-360 349.44 0 0-94.08-117.12-41.28-121.92 43.2-7.68 50.88-96-0.96 14.4-126.72 205.44-72 216 68.16 27.84 289.92-380.16 0-9.6 121.92 401.28 0z"  horiz-adv-x="1024" />

    
    <glyph glyph-name="huangguan" unicode="&#59091;" d="M1018.88 523.264q10.24-30.72 11.776-64t-3.584-64-16.384-57.344-26.624-45.056q-16.384-19.456-31.744-36.864t-27.648-31.744q-14.336-16.384-26.624-30.72 5.12-14.336 7.168-28.672 2.048-12.288 0.512-26.624t-10.752-26.624q-11.264-15.36-39.424-33.792t-71.68-34.304-101.376-26.112-128.512-10.24q-66.56 0-122.368 11.264t-98.304 28.672-71.168 37.888-38.912 38.912q-10.24 16.384-12.288 29.696t0 22.528q2.048 11.264 7.168 19.456-16.384 15.36-32.768 33.792-14.336 15.36-30.208 35.328t-30.208 42.496q-13.312 22.528-23.552 47.616t-14.848 52.736-2.56 57.344 14.336 59.392q8.192 20.48 18.432 35.328t22.528 26.112q1.024 8.192 3.072 20.48t5.632 25.088 9.216 26.112 13.824 22.528q30.72 34.816 77.312 41.984t98.816-10.24q33.792-11.264 75.264-20.48t70.144-14.336q0 5.12 0.512 11.264t1.536 11.264q3.072 17.408 15.36 25.088t39.936 7.68q29.696 0 39.936-7.168t12.288-18.432q2.048-8.192 3.584-16.384t2.56-14.336q26.624 7.168 66.56 18.432t75.776 24.576q51.2 18.432 98.304 7.68t76.8-45.568q14.336-16.384 20.992-39.936t9.728-40.96q21.504-13.312 37.376-31.744t25.088-45.056zM837.632 679.936q-21.504 5.12-45.056 2.56t-45.056-7.68-38.912-10.752-25.6-7.68q-6.144-2.048-16.384-4.608t-21.504-4.608q25.6-4.096 57.344-7.68t58.368-3.584q32.768 0 68.096-2.048t68.096-10.24q-4.096 12.288-16.896 30.72t-42.496 25.6zM252.928 678.912q-30.72-8.192-42.496-27.648t-14.848-32.768q28.672 10.24 59.904 12.8t61.952 3.584q32.768 1.024 69.12 4.608t65.024 7.68q-11.264 3.072-20.992 5.12t-15.872 4.096q-8.192 2.048-26.112 7.68t-40.448 10.752-47.616 7.168-47.616-3.072zM936.96 311.296q14.336 21.504 23.552 49.152t12.8 55.296 0 54.272-13.824 47.104q-15.36 28.672-37.376 44.544t-48.128 24.064-55.808 10.24-60.416 3.072q-28.672 1.024-56.32 4.096t-50.688 6.656-39.424 6.656-21.504 4.096l-10.24 0q-15.36 2.048-31.232 1.024t-30.208-1.024q-36.864-6.144-71.68-11.264-29.696-5.12-61.952-8.704t-54.784-4.608-45.568-3.584-46.08-10.24-44.544-23.04-39.936-40.96q-15.36-22.528-18.432-50.176t2.56-55.808 17.92-54.784 26.624-46.08q28.672-38.912 57.856-68.096t47.616-39.424q21.504-11.264 58.368-20.992t77.312-16.896 78.336-10.752 62.464-2.56q15.36 0 45.568 2.56t68.096 8.192 79.36 15.36 77.312 25.088q10.24 4.096 23.552 15.872t27.136 26.624 27.136 31.744 24.576 33.28zM337.92 548.864q16.384 1.024 29.696 2.56t23.552 3.584q11.264 2.048 21.504 4.096-7.168-8.192-14.336-18.432-6.144-8.192-12.8-18.432t-10.752-20.48q-12.288-32.768-14.848-49.664t-9.728-25.088q-3.072-4.096-9.728-9.728t-12.8-13.312-11.264-18.432-5.12-26.112q0-16.384 6.144-25.6t13.312-16.896 12.8-16.896 4.608-24.576q-2.048-13.312-9.728-19.456t-28.16 5.12q-18.432 10.24-31.744 23.04t-22.528 24.064q-11.264 12.288-17.408 25.6-17.408 29.696-26.624 59.392-8.192 25.6-9.216 53.76t15.36 51.712q14.336 20.48 34.304 31.232t39.424 14.848q22.528 4.096 46.08 4.096zM758.784 555.008q23.552-1.024 47.104-7.168 19.456-5.12 40.96-15.872t36.864-31.232q20.48-25.6 21.504-54.784t-4.096-54.784q-7.168-29.696-21.504-59.392-7.168-15.36-18.432-30.72-9.216-13.312-23.552-27.136t-33.792-23.04q-32.768-15.36-48.128-6.656t-7.168 31.232q4.096 10.24 11.264 17.408t13.824 14.336 11.776 17.408 5.12 26.624-5.12 28.672-12.288 21.504-13.824 15.36-9.728 10.24q-6.144 8.192-8.704 29.696t-19.968 51.2q-17.408 27.648-26.624 39.936-5.12 7.168-8.192 11.264 8.192 0 19.456-1.024 17.408-1.024 53.248-3.072zM688.128 448.512q4.096-18.432-0.512-30.208t-12.288-22.016-14.848-21.504-7.168-29.696q0-16.384 5.12-26.112t11.264-17.408 11.776-14.848 5.632-19.456q1.024-22.528-16.384-34.816t-53.248-21.504q-20.48-6.144-55.808-7.168t-71.168 4.096q-33.792 5.12-56.832 19.968t-24.064 38.4q0 15.36 5.632 24.576t12.8 16.896 13.312 16.384 6.144 24.064-7.168 26.624-14.848 22.016-13.312 22.016-2.56 28.672q2.048 13.312 8.192 29.696t15.872 33.792 23.04 33.792 28.672 28.672l114.688 1.024q20.48-16.384 37.888-35.84 14.336-17.408 28.672-40.448t21.504-49.664z"  horiz-adv-x="1032" />

    
    <glyph glyph-name="news" unicode="&#58902;" d="M878.985 850.3639 332.257684 850.3639c-40.2594 0-72.8966-32.6359-72.8966-72.8936l0-54.670933L150.014591 722.799367c-40.2594 0-72.8966-32.6359-72.8966-72.8936l0-601.375268c0-40.2577 32.6372-72.8936 72.8966-72.8936l728.970375 0c40.2594 0 72.8966 32.6359 72.8966 72.8936L951.881566 777.470363C951.8826 817.7281 919.2454 850.3639 878.985 850.3639zM204.6878 30.3059c-40.2594 0-72.8966 32.6359-72.8966 72.8936L131.7912 595.234919c0 40.2577 32.6372 72.8936 72.8966 72.8936l54.673228 0 0-619.598912c0-6.2927 0.7975-12.3986 2.2965-18.2236L204.687819 30.306007zM897.2094 103.2005c0-40.2577-32.6372-72.8936-72.8966-72.8936L386.929913 30.3069c-40.2594 0-72.8966 32.6359-72.8966 72.8936L314.033313 722.79943c0 40.2577 32.6372 72.8936 72.8966 72.8936l437.382825 0c40.2594 0 72.8966-32.6359 72.8966-72.8936L897.209337 103.200518zM538.8243 710.6786l-151.903389 0 0-190.194048 151.903389 0L538.8243 710.678648zM386.9209 387.3499l455.710168 0 0 57.058314-455.710168 0L386.9209 387.349865zM386.9209 254.2141l455.710168 0 0 57.058314-455.710168 0L386.9209 254.214131zM386.9209 121.0784l455.710168 0L842.631068 178.136711l-455.710168 0L386.9209 121.078397zM614.776 710.6786l0-57.058314 227.855084 0 0 57.058314L614.776002 710.6786zM614.776 520.4856l227.855084 0 0 57.058314-227.855084 0L614.776 520.485599z"  horiz-adv-x="1000" />

    
    <glyph glyph-name="slider-right" unicode="&#58941;" d="M881.298746 375.657405 398.119373 896 175.112486 896 658.29178 375.657405 175.112507-107.504117l223.006914 0L881.298746 375.657405z"  horiz-adv-x="1024" />

    
    <glyph glyph-name="slider-left" unicode="&#59005;" d="M658.29178-107.504117l223.006914 0L398.119373 375.657405 881.298746 896 658.291782 896 175.112507 375.657405 658.29178-107.504117z"  horiz-adv-x="1024" />

    
    <glyph glyph-name="tuku" unicode="&#58899;" d="M125 646l0-625 875 0 0 625-875 0zM937.5 125.1562l-125 208.3438-141.6563-118.0625-108.3438 180.5625-375-312.5 0 500 750 0 0-458.34375zM250 427.25c0 51.7813 41.9688 93.75 93.75 93.75s93.75-41.9688 93.75-93.75c0-51.7813-41.9688-93.75-93.75-93.75-51.7813 0-93.75 41.9688-93.75 93.75zM875 771l-875 0 0-625 62.5 0 0 562.5 812.5 0z"  horiz-adv-x="1000" />

    
    <glyph glyph-name="shuru" unicode="&#58951;" d="M861.428838 639.35273c2.413056-5.362074 4.346163-11.614515 5.808538-18.76439 1.49207-7.146803 2.232934-14.593331 2.232934-22.336717 0-7.743386-1.487974-15.481549-4.468941-23.224934-2.988134-7.745434-7.754957-15.191962-14.291046-22.336717-7.149158-7.150899-13.550182-13.402214-19.212288-18.762342-5.659136-5.361152-10.572186-10.126643-14.743347-14.296576-4.7616-4.764467-9.231667-8.935526-13.401805-12.506829L636.272845 674.195354c7.146086 6.552269 15.635763 14.44393 25.460941 23.679283 9.82825 9.232282 18.021171 16.525414 24.572621 21.888512 8.340275 6.551245 16.979354 11.167334 25.914266 13.850419 8.932762 2.677965 17.72032 3.870106 26.355302 3.571302 8.63703-0.299827 16.974234-1.639322 25.019802-4.020531 8.040448-2.382234 15.036006-5.061222 20.990874-8.042189 12.514509-6.557389 26.36247-18.01943 41.552077-34.397389C841.324134 674.347827 853.092659 657.219686 861.428838 639.35273L861.428838 639.35273zM165.404774 203.348582c3.572531 3.57335 11.91383 12.06272 25.015706 25.46391 13.105971 13.403238 29.487821 29.929677 49.141146 49.587405l65.228186 65.217331 72.373248 72.370278 192.09984 192.094003 167.07799-167.967539L544.243098 248.022016l-71.47776-72.370278c-23.826637-23.22903-45.270835-44.52608-64.331776-63.882957-19.059814-19.358925-34.848051-35.289702-47.355392-47.798682-12.510413-12.507853-19.956326-19.65568-22.337638-21.443379-5.952819-5.360128-12.808192-11.017933-20.547789-16.972595-7.742669-5.960806-15.783117-10.72425-24.12544-14.296576-8.336179-4.170957-20.549837-9.231258-36.634829-15.18889-16.080896-5.955686-32.907776-11.762893-50.480742-17.421824-17.56887-5.662003-34.247373-10.574848-50.036634-14.745805-15.784141-4.163789-27.545498-6.849024-35.290112-8.037069-16.086016-1.787699-26.804531 0.595558-32.166912 7.146803-5.360333 6.549197-6.849229 17.568154-4.467917 33.057894 1.192243 8.33792 4.023808 20.396544 8.490701 36.184064 4.467917 15.785472 9.231667 32.162509 14.29207 49.140224 5.065523 16.972595 9.977651 32.60969 14.745395 46.904218 4.764672 14.293504 8.633958 24.123392 11.614003 29.48352 3.574579 8.336896 7.596339 15.932928 12.062208 22.782874C150.663475 187.416781 157.068595 195.008614 165.404774 203.348582L165.404774 203.348582zM165.404774 203.348582M463.329075 34.839757l79.902003 0 0-79.548723-79.902003 0 0 79.548723ZM625.668915 34.839757l79.902003 0 0-79.548723-79.902003 0 0 79.548723ZM788.655514 34.839757l79.902003 0 0-79.548723-79.902003 0 0 79.548723Z"  horiz-adv-x="1024" />

    
    <glyph glyph-name="sanjiao" unicode="&#59006;" d="M629.807 332.353l0-103.724-103.726 0 0-103.723-103.728 0 0-103.723-103.729 0 0 726.066 103.729 0 0-103.723 103.728 0 0-103.723 103.726 0 0-103.724 103.73 0 0-103.723-103.73 0z"  horiz-adv-x="1024" />

    
    <glyph glyph-name="share-renren" unicode="&#59096;" d="M565.191 551.49l0 278.572c104.285-17.93 191.516-67.812 261.474-149.872 69.959-81.987 104.949-177.401 104.949-286.322 0-107.589-34.325-202.341-103.039-284.398-78.9 38.447-142.49 97.407-191.009 176.81-48.226 79.473-72.375 167.881-72.375 265.21zM492.595 282.438c26.636-111.424 97.331-203.739 211.855-276.654-64.906-35.931-135.529-53.867-211.855-53.867-76.404 0-146.363 17.937-210.111 53.867 113.361 72.916 183.325 165.23 210.111 276.654zM420 830.062l0-280.487c-1.322-96.156-25.764-183.82-73.481-263.295-47.712-79.403-110.431-138.363-188-176.81-69.965 83.311-105.084 178.065-105.084 284.398 0 108.921 35.119 204.334 105.084 286.322 69.964 82.059 157.047 131.943 261.481 149.872z"  horiz-adv-x="1000" />

    
    <glyph glyph-name="share-tweibo" unicode="&#59097;" d="M54.734 390.991c0-145.918 71.131-275.151 180.617-354.99 22.684 99.817 61.762 178.266 98.28 232.416 22.827 34.099 46.254 62.202 67.543 84.52-5.339 12.074-8.269 25.542-8.269 39.666 0 54.591 44.424 98.716 99.088 98.716 54.887 0 98.867-44.125 98.867-98.716 0-54.96-43.98-99.084-98.867-99.084-21.147 0-40.542 6.586-56.716 17.78-18.731-19.977-39.006-49.031-58.767-78.739-45.668-68.348-76.913-144.677-93.451-226.853 62.569-34.324 134.356-53.79 210.762-53.79 242.522 0 439.09 196.56 439.09 439.074s-196.567 439.071-439.088 439.071c-242.522 0-439.09-196.557-439.09-439.071zM487.527 685.827c165.031 0 299.173-134.061 299.173-299.006 0-164.579-134.144-298.637-299.173-298.637-22.541 0-45.367 2.486-67.106 7.389-14.415 3.359-22.976 17.637-20.053 31.759 3.517 14.414 17.495 23.415 31.76 19.974 18.01-4.095 36.742-6.071 55.401-6.071 135.759 0 245.966 110.207 245.966 245.588 0 135.451-110.208 245.733-245.966 245.733-135.458 0-245.887-110.282-245.887-245.733 0-39.297 9.076-77.059 27-111.965 6.883-13.024 1.758-29.053-11.635-35.635-13.093-6.953-28.83-1.758-35.633 11.341-21.669 41.785-32.86 89.204-32.86 136.26-0.001 164.944 134.142 299.005 299.015 299.005z"  horiz-adv-x="1000" />

    
    <glyph glyph-name="arrow2-left" unicode="&#59092;" d="M710.121 713.285l-39.583 39.584-365.646-365.721 365.646-365.679 39.583 39.583-326.126 326.12z"  horiz-adv-x="1024" />

    
    <glyph glyph-name="paixu" unicode="&#58997;" d="M420.559974 823.01399l-54.855 0 0-774.336c-52.455014 69.163008-121.619046 123.762995-201.120051 157.052006l0-61.968c85.838029-41.401958 156.537958-111.337984 201.120051-198.221005l0-0.208 54.855 0 0 13.047c0.005018 0.00297 0.010035 0.005018 0.01495 0.007987-0.005018 0.010035-0.010035 0.019968-0.01495 0.030003L420.559974 823.014zM658.264986 822.614016l0 0.4L603.41 823.014016l0-877.68 54.855 0L658.265 719.476c52.457984-69.178982 121.632051-123.790029 201.149952-157.078016l0 61.961C773.560013 665.761997 702.853018 735.712973 658.264986 822.614016z"  horiz-adv-x="1024" />

    
    <glyph glyph-name="niming" unicode="&#58916;" d="M711.3665 147.5814l70.6351-68.3781-0.0209-0.0418c7.5442-7.3143 12.288-17.5334 12.288-28.9019 0-22.2563-18.0558-40.3122-40.3122-40.3122-10.9087 0-20.7726 4.3677-28.0242 11.4103l-0.0209-0.0209L100.9371 626.1029l0.0209 0.0209c-7.5442 7.3352-12.288 17.5543-12.288 28.9019 0 22.2563 18.0558 40.3122 40.3122 40.3122 10.9087 0 20.7726-4.3677 28.0451-11.4103l0.0209 0.0418 108.6067-105.0958c69.4021 32.7053 152.2416 55.9856 246.366 55.9856 292.4251 0 483.8296-232.4689 483.8296-262.0813C995.8713 349.2258 889.1873 213.7861 711.3665 147.5814zM501.9481 574.4013c-62.9447 0-119.0348-27.857-157.7796-71.4919l71.6173-69.3185c20.5427 24.9522 51.3045 41.1899 86.1623 41.1899 61.8998 0 112.0549-50.1551 112.0549-112.0549 0-33.5412-15.0465-63.279-38.3896-83.8008l71.6173-69.3185c40.6465 38.5358 66.3928 92.6616 66.3928 153.1193C713.6235 479.6291 618.8513 574.4013 501.9481 574.4013zM530.0767 111.5951c-6.0604-0.1881-11.8909-0.8777-18.0558-0.8777-310.063 0-487.8211 222.9394-483.8296 262.0813 0 13.5837 37.6163 67.5631 105.6183 123.0263L530.0767 111.5951z"  horiz-adv-x="1024" />

    
    <glyph glyph-name="add" unicode="&#58880;" d="M896 320 576 320l0-320L448 0 448 320 128 320 128 448l320 0L448 768l128 0 0-320 320 0L896 320z"  horiz-adv-x="1024" />

    
    <glyph glyph-name="root" unicode="&#58925;" d="M882.727 124.778c2.722-9.5 5.114-21.563 7.162-36.146 2.034-14.598 3.066-29.369 3.066-44.297 0-14.929-1.19-29.026-3.582-42.263-2.378-13.238-5.959-23.252-10.731-30.043-3.396-4.74-12.092-9.325-26.06-13.737-13.966-4.414-31.516-8.481-52.634-12.222-21.13-3.739-44.64-7.291-70.542-10.7-25.872-3.382-51.774-6.275-77.676-8.654-25.888-2.379-51.102-4.069-75.642-5.085-24.526-1.017-45.987-1.533-64.382-1.533-18.394 0-39.683 0.687-63.879 2.033-24.196 1.362-49.068 3.066-74.625 5.101-25.558 2.034-50.93 4.412-76.129 7.134-25.214 2.707-48.222 5.759-68.994 9.155-20.802 3.395-38.509 6.618-53.151 9.67-14.671 3.065-23.695 6.275-27.105 9.684-6.131 4.758-10.887 19.856-14.297 45.315-3.41 25.456-2.049 58.551 4.083 99.279 3.41 23.079 12.779 40.73 28.108 52.95 15.344 12.22 33.051 21.89 53.164 29.024 20.086 7.121 41.216 13.409 63.351 18.839 22.148 5.429 41.402 13.58 57.763 24.439 12.935 8.138 22.994 15.961 30.142 23.409 7.163 7.478 12.263 14.942 15.329 22.406 3.066 7.478 4.613 15.271 4.613 23.423 0 8.153-0.345 17.321-1.033 27.492-1.347 14.943-6.304 26.476-14.812 34.628-8.525 8.15-17.893 16.633-28.109 25.457-5.444 4.069-10.057 10.014-13.81 17.822-3.74 7.808-7.306 15.787-10.716 23.925-3.41 8.825-6.476 18.682-9.198 29.54-1.375 1.361-3.41 3.724-6.131 7.12-2.063 3.396-4.441 7.98-7.163 13.753-2.722 5.773-5.788 14.082-9.198 24.942-3.41 10.858-5.616 20.543-6.649 29.024s-0.859 15.787 0.515 21.89c0.674 7.478 2.379 13.925 5.101 19.341 0 23.781 1.375 47.534 4.097 71.287 2.722 19.684 7.149 41.087 13.295 64.153 6.131 23.093 16.002 43.796 29.626 62.118 12.263 16.977 25.558 31.059 39.855 42.262 14.327 11.203 29.14 19.856 44.469 25.959 15.329 6.117 30.83 10.358 46.503 12.737 15.673 2.378 30.672 3.567 44.983 3.567 15.673-1.375 28.452-3.238 38.337-5.601 9.871-2.391 17.879-5.286 24.011-8.653 6.13-3.395 11.402-7.465 15.844-12.22 4.426-4.757 9.025-9.513 13.796-14.254l19.412 0c6.146 0 12.092-0.846 17.892-2.551 5.804-1.69 11.59-4.914 17.378-9.67 5.79-4.756 12.095-11.547 18.912-20.373 15.671-20.372 27.248-42.591 34.756-66.702 7.492-24.097 12.949-47.004 16.343-68.737 3.412-25.114 5.46-49.883 6.146-74.324 1.348-3.396 2.38-7.478 3.066-12.22 0.674-4.757 1.175-10.53 1.52-17.321 0.342-6.79-0.174-15.271-1.52-25.457-1.376-13.567-3.408-24.269-6.13-32.077-2.738-7.794-5.804-13.753-9.198-17.822-3.41-4.757-7.164-8.137-11.26-10.171-2.722-10.858-5.788-20.716-9.198-29.54-3.41-8.138-6.977-16.117-10.731-23.925-3.74-7.808-8.352-13.753-13.796-17.822-11.59-9.498-21.132-17.478-28.624-23.925-7.492-6.448-12.606-17.478-15.328-33.093-2.036-9.513-2.722-19.026-2.036-28.51 0.674-9.513 3.238-19.197 7.65-29.024 4.442-9.857 11.59-19.184 21.462-28.009 9.884-8.839 23.696-16.633 41.402-23.423 15.674-6.105 32.878-11.706 51.618-16.79 18.753-5.098 36.802-10.873 54.167-17.321 17.39-6.46 32.892-14.769 46.514-24.955 13.623-10.183 23.165-23.419 28.61-39.708l0 0zM554.628 158.387c2.048 4.066 2.22 8.323 0.514 12.736-1.703 4.413-4.268 8.652-7.664 12.721-3.41 4.069-7.492 8.481-12.263 13.238l-47.031 0c-4.757-4.758-8.509-9.169-11.231-13.238-2.722-3.396-4.956-7.134-6.649-11.203-1.69-4.069-1.533-7.808 0.516-11.203 4.771-9.498 8.853-17.822 12.263-24.956 3.41-7.121 7.163-12.722 11.246-16.79-1.361-6.115-3.41-14.756-6.146-25.959-2.722-11.203-5.271-22.749-7.65-34.625-2.391-11.889-4.439-23.093-6.132-33.609-1.705-10.53-2.55-18.495-2.55-23.939 0-3.38 1.519-7.449 4.583-12.206 3.067-4.756 6.647-9.684 10.745-14.769 4.083-5.086 8.337-9.328 12.779-12.736 4.428-3.382 8.338-5.088 11.748-5.088s7.492 1.706 12.263 5.088c4.771 3.408 9.37 7.305 13.796 11.719 4.427 4.412 8.181 9.167 11.246 14.253 3.067 5.085 4.599 9.327 4.599 12.736 0 4.069-1.017 11.031-3.066 20.86-2.048 9.856-4.254 20.886-6.634 33.093-2.391 12.235-4.957 24.112-7.679 35.643-2.722 11.548-5.098 20.716-7.163 27.507 4.097 3.38 8.023 8.308 11.777 14.755 3.738 6.446 8.337 15.098 13.781 25.974l0 0zM554.628 158.387z"  horiz-adv-x="1024" />

    
    <glyph glyph-name="xuanzhong" unicode="&#58998;" d="M866.325 406.917c0.483-7.58 0.756-15.219 0.756-22.921 0-196.096-158.981-355.068-355.083-355.068-196.103 0-355.074 158.974-355.074 355.068 0 196.103 158.969 355.074 355.074 355.074 98.049 0 186.821-39.743 251.079-103.999l50.21 50.212c-77.106 77.107-183.628 124.798-301.289 124.798-235.325 0-426.089-190.765-426.089-426.089s190.765-426.083 426.089-426.083c235.318 0 426.083 190.759 426.083 426.083 0 29.46-2.991 58.221-8.684 85.999l-63.074-63.076zM862.755 623.811c-85.893-85.884-263.18-263.174-350.055-350.053l-184.125 184.13-50.203-50.215 234.324-234.335 50.212 50.211c82.305 82.301 245.744 245.738 335.751 335.743 38.14 38.144 63.1 63.103 63.1 63.103l-50.215 50.212c-0.001 0-18.835-18.834-48.789-48.796z"  horiz-adv-x="1024" />

    
    <glyph glyph-name="weixuanzhong" unicode="&#58999;" d="M512 713.141c-181.782 0-329.143-147.365-329.143-329.143 0-181.782 147.361-329.146 329.143-329.146 181.778 0 329.139 147.365 329.139 329.146C841.139 565.776 693.778 713.141 512 713.141zM512.004 109.709c-151.486 0-274.289 122.803-274.289 274.289 0 151.483 122.803 274.286 274.289 274.286s274.289-122.803 274.289-274.286C786.293 232.512 663.49 109.709 512.004 109.709z"  horiz-adv-x="1024" />

    
    <glyph glyph-name="arrow2-bottom" unicode="&#59093;" d="M185.884 568.45 146.3 528.867 512.021 163.221 877.7 528.867 838.117 568.45 511.997 242.324Z"  horiz-adv-x="1024" />

    
    <glyph glyph-name="arrow2-top" unicode="&#59094;" d="M838.116 184.554l39.584 39.584-365.721 365.646-365.679-365.646 39.583-39.584 326.12 326.127z"  horiz-adv-x="1024" />

    
    <glyph glyph-name="like2" unicode="&#58952;" d="M298.272 739.069c-112.145 0.649-188.37-69.898-214.561-158.866-25.86-87.833-2.653-194.886 85.489-267.345 21.468-17.648 49.514-40.992 83.793-69.609 58.822-49.117 151.93-125.56 287.348-236.172 140.933 126.413 231.443 202.498 283.968 247.703 30.843 26.538 55.109 45.063 70.252 58.078 190.121 163.373 113.424 427.332-122.727 426.212-33.458-0.166-64.794-7.571-94.37-18.369-49.982-18.239-109.192-55.937-137.123-129.396-24.963 75.591-85.02 112.024-139.23 130.253-32.123 10.807-66.441 17.301-102.841 17.511z"  horiz-adv-x="1082" />

    
    <glyph glyph-name="arrow2-right" unicode="&#59095;" d="M313.879 61.053l39.583-39.584 365.646 365.721-365.646 365.679-39.583-39.583 326.126-326.12z"  horiz-adv-x="1024" />

    
    <glyph glyph-name="shangyishou" unicode="&#59099;" d="M511.75 830.055c-247.121 0-447.447-200.326-447.447-447.447 0-247.11 200.326-447.446 447.447-447.446 247.115 0 447.447 200.336 447.447 447.446 0 247.122-200.332 447.447-447.447 447.447zM511.5-15.923c-220.647 0-399.516 178.874-399.516 399.521 0 220.637 178.868 399.51 399.516 399.51s399.516-178.874 399.516-399.51c0-220.647-178.867-399.521-399.516-399.521zM648.208 592.792c-8.035 0.043-15.109-3.935-19.347-10.04l-218.587-179.508c-1.852-1.035-3.595-2.34-5.168-3.928-9.036-9.135-9.036-23.933 0-33.057l0.409-0.331c0.036-0.036 0.068-0.075 0.105-0.111 1.275-1.288 2.663-2.391 4.128-3.322l219.857-178.273c4.337-5.83 11.263-9.633 19.052-9.667 0.473-0.003 0.943 0.012 1.41 0.036 5.703 0.16 11.357 2.432 15.708 6.828 0.377 0.381 0.732 0.775 1.077 1.175 3.368 3.804 5.478 8.708 5.667 14.164 0.029 0.578 0.032 1.156 0.02 1.734l-0.199 370.539c-0.068 13.049-11.078 23.689-24.13 23.759zM458.877 382.247l165.847 136.192 0.149-270.785-165.997 134.592zM373.775 568.462c-13.056 0.07-23.584-10.464-23.514-23.514l0.204-322.944c0.064-13.061 10.702-23.701 23.759-23.759 13.051-0.07 23.951 10.08 23.887 23.13l-0.204 323.328c-0.069 13.05-11.08 23.69-24.132 23.759z"  horiz-adv-x="1024" />

    
    <glyph glyph-name="xiayishou" unicode="&#59107;" d="M616.767 399.997c-0.036 0.036-0.067 0.074-0.102 0.109-1.253 1.266-2.614 2.352-4.05 3.271l-220.316 179.402c-4.344 5.856-11.292 9.677-19.108 9.719-0.561 0.003-1.117-0.021-1.668-0.053-5.626-0.222-11.187-2.497-15.48-6.833-0.373-0.377-0.725-0.766-1.066-1.162-3.368-3.803-5.481-8.7-5.683-14.148-0.034-0.64-0.037-1.282-0.021-1.922l0.197-371.172c0.07-13.075 11.102-23.732 24.175-23.801 8.045-0.043 15.128 3.934 19.377 10.046l218.926 179.132c1.876 1.042 3.64 2.359 5.229 3.964 9.046 9.15 9.046 23.976 0 33.116l-0.412 0.335zM397.173 247.772l-0.145 271.339 166.286-135.398-166.142-135.941zM511.14 830.241c-247.549 0-448.241-200.68-448.241-448.239 0-247.548 200.692-448.24 448.241-448.24 247.56 0 448.238 200.692 448.238 448.24 0 247.559-200.678 448.239-448.238 448.239zM510.896-17.238c-221.039 0-400.218 179.191-400.218 400.23 0 221.027 179.179 400.218 400.218 400.218 221.04 0 400.22-179.192 400.22-400.218-0.001-221.039-179.179-400.23-400.22-400.23zM648.11 568.592c-13.072 0.069-23.987-10.109-23.917-23.183l0.199-324.298c0.068-13.073 11.101-23.732 24.173-23.801 13.074-0.07 23.627 10.469 23.557 23.556l-0.199 323.924c-0.07 13.072-10.728 23.731-23.813 23.8z"  horiz-adv-x="1024" />

    
    <glyph glyph-name="share-weixin" unicode="&#59028;" d="M571.648 384.06c-10.257 0-20.517-9.525-20.517-21.25 0-9.527 10.255-19.053 20.517-19.053 15.393 0 26.385 9.527 26.385 19.053 0 11.724-10.99 21.25-26.385 21.25l0 0zM504.225 483c16.123 0 26.385 10.257 26.385 25.651 0 16.123-10.261 25.649-26.385 25.649-15.39 0-30.048-9.527-30.048-25.649-0.001-15.396 14.659-25.651 30.048-25.651l0 0zM512.287 833.508c-248.427 0-449.813-201.386-449.813-449.813 0-248.425 201.386-449.812 449.813-449.812 248.425 0 449.812 201.386 449.812 449.812 0.001 248.427-201.385 449.813-449.812 449.813l0 0zM427.275 269.735c-27.119 0-46.906 4.394-72.556 11.725l-74.019-37.38 21.257 63.031c-52.035 36.64-82.818 82.811-82.818 139.243 0 99.67 93.808 175.889 208.137 175.889 101.135 0 191.279-60.097 208.867-145.113-7.328 1.469-13.926 2.199-19.788 2.199-99.67 0-176.619-74.75-176.619-164.894 0-15.388 2.199-29.313 5.863-43.972-5.863-0.728-12.461-0.728-18.324-0.728l0 0zM732.882 197.915l14.655-52.77-55.697 31.512c-21.252-4.394-41.773-10.99-63.025-10.99-98.206 0-175.889 67.422-175.889 150.968 0 83.547 77.685 150.97 175.889 150.97 93.072 0 176.619-67.423 176.619-150.97 0-46.9-31.512-88.673-72.552-118.721l0 0zM359.117 534.3c-15.39 0-31.512-9.527-31.512-25.649 0-15.395 16.122-25.656 31.512-25.656 14.66 0 26.385 10.261 26.385 25.656 0 16.122-11.725 25.649-26.385 25.649l0 0zM686.712 384.06c-10.995 0-20.522-9.525-20.522-21.25 0-9.527 9.527-19.053 20.522-19.053 14.655 0 25.649 9.527 25.649 19.053 0 11.724-10.994 21.25-25.649 21.25l0 0zM686.712 384.06z"  horiz-adv-x="1024" />

    
    <glyph glyph-name="shenhe-tingyong" unicode="&#58929;" d="M502.977-49.033c-235.399 0-426.91 191.51-426.91 426.905 0 235.37 191.51 426.864 426.91 426.864 235.377 0 426.869-191.493 426.869-426.864 0-235.394-191.493-426.905-426.869-426.905zM502.977 798.915c-232.185 0-421.085-188.878-421.085-421.038 0-232.185 188.9-421.079 421.085-421.079 232.165 0 421.044 188.895 421.044 421.079 0 232.16-188.878 421.038-421.044 421.038zM808.648 329.609c0-18.181-17.301-32.914-38.617-32.914l-534.128 0c-21.339 0-38.617 14.732-38.617 32.914l0 96.527c0 18.198 17.284 32.914 38.617 32.914l534.128 0c21.315 0 38.617-14.715 38.617-32.914l0-96.527z"  horiz-adv-x="1024" />

    
    <glyph glyph-name="gouxuan2" unicode="&#58881;" d="M519.567-48.73c-235.399 0-426.916 191.505-426.916 426.893 0 235.399 191.517 426.916 426.916 426.916 235.377 0 426.869-191.517 426.869-426.916 0-235.388-191.493-426.893-426.869-426.893zM519.567 799.253c-232.19 0-421.09-188.9-421.09-421.09 0-232.173 188.9-421.068 421.09-421.068 232.165 0 421.044 188.895 421.044 421.068 0 232.19-188.883 421.09-421.044 421.09zM763.483 378.163c0-134.724-109.215-243.974-243.939-243.974s-243.939 109.249-243.939 243.974 109.215 243.986 243.939 243.986 243.939-109.262 243.939-243.986z"  horiz-adv-x="1024" />

    
    <glyph glyph-name="selected" unicode="&#58903;" d="M625.687519-93.189428 624.86253-94.063265 416.154686 134.974417 524.657074 254.154629 642.346516 124.918954 899.2493 407.068947 1010.604777 284.757032 1010.604777 880.01583 15.077767-115.507562 646.060777-115.507562ZM647.743322-115.507562 1010.604777-115.507562 1010.604777 283.041922Z"  horiz-adv-x="1024" />

    
    <glyph glyph-name="jianhao" unicode="&#59041;" d="M128.442 445.927l766.623 0 0-127.771-766.623 0 0 127.771z"  horiz-adv-x="1024" />

    
    <glyph glyph-name="user-group" unicode="&#58923;" d="M948.928 222.548c-16.576 25.856-16.384 41.984-71.552 65.216-55.232 22.848-68.352 30.848-68.352 30.848l-0.448 52.928c0 0 20.672 15.936 27.136 65.792 12.864-3.712 26.432 19.264 27.264 31.424 0.64 11.648-1.792 44.16-17.6 40.896 3.2 24.448 5.568 46.464 4.48 58.112-4.16 42.496-46.08 87.36-110.528 87.36s-106.304-44.864-110.528-87.36c-1.088-11.712 1.28-33.664 4.48-58.112-15.872 3.328-18.368-29.248-17.6-40.896 0.832-12.16 14.4-35.136 27.264-31.424 6.528-49.856 27.2-65.792 27.2-65.792l-46.144-36.032c25.728-14.144 92.864-6.656 106.944-28.544 8.256-12.864 30.08-46.912 23.808-251.456l204.608 0c0 0 4.544 143.872-10.432 167.04zM525.696 313.812c-61.44 25.6-76.032 34.624-76.032 34.624l-0.64 58.816c0 0 23.104 17.728 30.336 73.216 14.272-4.16 29.44 21.44 30.272 35.008 0.768 12.928-1.984 49.152-19.584 45.504 3.584 27.264 6.144 51.712 4.864 64.64-4.48 47.36-51.2 97.344-122.88 97.344-71.68 0-118.336-49.984-122.944-97.344-1.216-12.992 1.344-37.44 4.992-64.64-17.664 3.584-20.416-32.576-19.584-45.504 0.832-13.568 15.936-39.104 30.336-35.008 7.168-55.424 30.144-73.216 30.144-73.216l-0.576-58.816c0 0-14.592-9.024-76.032-34.624-61.504-25.664-123.648-43.52-142.08-72.384-16.576-25.792-11.648-185.92-11.648-185.92l614.656 0c0 0 4.928 160.128-11.648 185.92-18.304 28.928-80.448 46.72-141.952 72.384z"  horiz-adv-x="1024" />

    
    <glyph glyph-name="yiguanzhu" unicode="&#59008;" d="M510.39744 597.24288C395.13088 871.744512 53.377024 807.491584 65.26464 489.122816c6.569984-174.884864 185.560064-255.371264 278.36416-340.880384 90.631168-83.576832 129.665024-111.694848 167.640064-149.474304 32.173056 32.659456 76.910592 62.802944 166.283264 149.474304 91.117568 88.50432 262.523904 170.923008 278.272 342.813696C985.101312 809.0368 620.352512 860.729344 510.39744 597.24288z"  horiz-adv-x="1024" />

    
    <glyph glyph-name="gengduo3" unicode="&#59129;" d="M161.822039 482.045013c54.146373 0 98.050054-43.901883 98.050054-98.046037s-43.902658-98.046037-98.050054-98.046037c-54.146373 0-98.050054 43.901883-98.050054 98.046037S107.67669 482.045013 161.822039 482.045013zM511.999488 482.045013c54.146373 0 98.050054-43.901883 98.050054-98.046037s-43.902658-98.046037-98.050054-98.046037c-54.146373 0-98.050054 43.901883-98.050054 98.046037S457.853116 482.045013 511.999488 482.045013zM862.175914 482.045013c54.146373 0 98.050054-43.901883 98.050054-98.046037s-43.902658-98.046037-98.050054-98.046037c-54.145349 0-98.050054 43.901883-98.050054 98.046037S808.030565 482.045013 862.175914 482.045013z"  horiz-adv-x="1024" />

    
    <glyph glyph-name="comment" unicode="&#58914;" d="M511.999488 48.117137c-28.734592 0-56.729303 2.604314-83.969807 7.099698L231.232673-64.185602 231.232673 134.59265C128.618486 206.644663 62.772174 317.110567 62.772174 441.174164c0 217.07906 201.129864 393.058051 449.228338 393.058051 248.084146 0 449.228338-175.980014 449.228338-393.058051C961.227826 224.082824 760.083635 48.117137 511.999488 48.117137zM511.999488 778.08238c-217.086932 0-393.074156-150.851707-393.074156-336.907193 0-114.166179 66.421434-214.898395 167.761552-275.820929l-1.768346-130.234133 132.171551 79.455633c30.4487-6.497994 62.117231-10.308787 94.910422-10.308787 217.101258 0 393.073132 150.825101 393.073132 336.907193C905.073644 627.230674 729.10177 778.08238 511.999488 778.08238zM736.614169 385.023306c-31.011542 0-56.154182 25.128307-56.154182 56.150858 0 31.010271 25.14264 56.151881 56.154182 56.151881s56.154182-25.14161 56.154182-56.151881C792.768351 410.151613 767.624687 385.023306 736.614169 385.023306zM511.999488 385.023306c-31.010518 0-56.153158 25.128307-56.153158 56.150858 0 31.010271 25.14264 56.151881 56.153158 56.151881 31.011542 0 56.154182-25.14161 56.154182-56.151881C568.15367 410.151613 543.01103 385.023306 511.999488 385.023306zM287.385831 385.023306c-31.010518 0-56.153158 25.128307-56.153158 56.150858 0 31.010271 25.14264 56.151881 56.153158 56.151881s56.153158-25.14161 56.153158-56.151881C343.53899 410.151613 318.39635 385.023306 287.385831 385.023306z"  horiz-adv-x="1024" />

    
    <glyph glyph-name="tongji-zhu" unicode="&#58904;" d="M828.750294 72.685695l-88.015102 0 0 465.696418c0 8.314363-6.753074 15.06716-15.098478 15.06716L608.634252 553.449273c-8.346427 0-15.099502-6.752798-15.099502-15.06716l0-465.696418-18.858259 0L574.676491 421.479613c0 8.345062-6.753074 15.06716-15.099502 15.06716L442.607275 436.546773c-8.345404 0-15.098478-6.721075-15.098478-15.06716l0-348.794941-18.858259 0L408.650538 632.635777c0 8.345062-6.753074 15.09786-15.098478 15.09786L276.548575 647.733637c-8.346427 0-15.099502-6.752798-15.099502-15.09786l0-559.100738c-36.265411 5.475711-64.154717 36.820604-64.154717 74.546833L197.294355 673.536302c0 8.345062-6.753074 15.06716-15.083128 15.06716-8.345404 0-15.098478-6.721075-15.098478-15.06716l0-525.453407c0-58.196447 47.399439-105.562221 105.661717-105.562221l555.976851 0c8.345404 0 15.099502 6.721075 15.099502 15.06716S837.095698 72.685695 828.750294 72.685695zM623.73273 523.28323l86.804482 0 0-450.597535-86.804482 0L623.73273 523.28323zM457.706777 406.38073l86.772758 0 0-333.696058-86.772758 0L457.706777 406.38073zM378.451534 617.56964l0-544.883945-86.804482 0L291.647053 617.56964 378.451534 617.56964z"  horiz-adv-x="1024" />

    
    <glyph glyph-name="like" unicode="&#58953;" d="M511.971 2.819l0 0c-4.683 0-9.169 1.878-12.452 5.209l-290.538 294.895c-65.669 65.67-101.888 143.874-101.888 220.118 0 123.119 81.795 205.841 203.543 205.841 104.651 0 146.134-46.492 201.336-111.376 55.21 64.878 96.672 111.376 201.329 111.376 121.761 0 203.571-82.723 203.571-205.841 0-76.251-36.204-154.455-101.947-220.207l-290.504-294.806c-3.284-3.329-7.77-5.209-12.448-5.209zM310.636 693.929c-102.413 0-168.588-67.075-168.588-170.888 0-66.913 32.579-136.337 91.742-195.492l278.181-282.354 278.149 282.266c59.225 59.238 91.795 128.668 91.795 195.58 0 103.812-66.189 170.888-168.615 170.888-90.451 0-123.33-38.662-177.802-102.712l-10.249-12.023c-3.318-3.884-8.171-6.117-13.279-6.117l0 0c-5.106 0-9.96 2.233-13.278 6.117l-10.18 11.947c-54.5 64.099-87.4 102.787-177.878 102.787z"  horiz-adv-x="1024" />

    
    <glyph glyph-name="shangjia" unicode="&#59100;" d="M821.129-37.557l-618.354 0c-62.093 0-112.428 50.334-112.428 112.428l0 618.354c0 62.093 50.334 112.428 112.428 112.428l618.354 0c62.093 0 112.428-50.334 112.428-112.428l0-618.354c0-62.093-50.333-112.428-112.428-112.428zM877.343 693.226c0 31.047-25.167 56.214-56.214 56.214l-618.354 0c-31.047 0-56.214-25.166-56.214-56.214l0-618.354c0-31.047 25.166-56.214 56.214-56.214l618.354 0c31.047 0 56.214 25.166 56.214 56.214l0 618.354zM772.729 476.194l-120.664 120.658 0-491.777c0.056-0.73 0.422-1.355 0.422-2.097 0-7.876-3.278-14.947-8.494-20.051-5.104-5.206-12.171-8.466-20.034-8.466-0.725 0-1.332 0.354-2.041 0.411l-334.822 0c-15.52 0-28.107 12.586-28.107 28.107 0 15.52 12.586 28.106 28.107 28.106l308.75 0 0 465.768-120.658-120.659c-10.985-10.985-28.765-10.985-39.743 0-10.985 10.978-10.985 28.765 0 39.743l168.642 168.642c10.978 10.978 28.759 10.978 39.743 0l168.642-168.642c5.486-5.492 8.235-12.682 8.235-19.866 0-7.201-2.75-14.392-8.235-19.878-10.978-10.984-28.764-10.984-39.743 0z"  horiz-adv-x="1024" />

    
    <glyph glyph-name="save" unicode="&#58930;" d="M742.594334 831.355701l-4.77597 0L82.740849 831.355701c-9.612319 0-17.405122-7.792477-17.405122-17.404392l0-858.097506c0-9.611915 7.792804-17.404392 17.405122-17.404392l858.133523 0c9.612319 0 17.405122 7.792477 17.405122 17.404392L958.279494 619.050364 742.594334 831.355701zM177.023029 696.611857c0 9.611915 7.792804 17.404392 17.405122 17.404392l440.023761 0c9.612319 0 17.405122-7.792477 17.405122-17.404392l0-103.679337c0-9.611915-7.792804-17.404392-17.405122-17.404392L194.428152 575.528128c-9.612319 0-17.405122 7.792477-17.405122 17.404392L177.023029 696.611857zM846.975947 66.480366c0-9.611915-7.792804-17.404392-17.405122-17.404392L194.428152 49.075974c-9.612319 0-17.405122 7.792477-17.405122 17.404392L177.023029 377.767042c0 9.611915 7.792804 17.404392 17.405122 17.404392L829.570825 395.171434c9.612319 0 17.405122-7.792477 17.405122-17.404392L846.975947 66.480366zM789.354227 344.112548c0 7.65433-6.225033 13.878079-13.929829 13.878079l-83.44696 0c-7.704796 0-13.929829-6.222725-13.929829-13.878079l0-83.132372c0-7.67582 6.22401-13.878079 13.929829-13.878079l83.44696 0c7.703772 0 13.929829 6.201236 13.929829 13.878079L789.354227 344.112548z"  horiz-adv-x="1024" />

    
    <glyph glyph-name="gongsi" unicode="&#58947;" d="M64.085 833.248c148.353 0 295.041 0 444.432 0 0-298.936 0-596.874 0-896.964-147.338 0-294.692 0-444.432 0C64.085 233.718 64.085 531.735 64.085 833.248zM116.086 610.819c40.923 0 77.098 0 114.211 0 0 37.925 0 73.439 0 113.141-34.723 0-68.329 0.547-101.87-0.68-4.286-0.156-11.607-9.442-11.79-14.697C115.528 676.74 116.086 644.843 116.086 610.819zM344.332 608.76c33.463 0 66.039-0.696 98.518 0.731 4.991 0.221 13.352 10.008 13.661 15.719 1.458 27.106 1.63 54.394-0.077 81.471-0.381 6.135-9.817 16.426-15.511 16.72-31.559 1.644-63.255 0.788-96.591 0.788C344.332 684.704 344.332 648.603 344.332 608.76zM231.501 159.611c0 34.067 1.016 64.907-0.856 95.574-0.381 6.197-11.348 16.268-18.019 16.768-26.119 1.957-52.514 1.579-78.711 0.212-6.074-0.317-16.66-7.744-16.858-12.262-1.447-33.218-0.779-66.528-0.779-100.292C156.424 159.611 191.848 159.611 231.501 159.611zM344.725 272.712c0-39.979 0-75.975 0-111.832 38.179 0 74.144 0 112.439 0 0 33.254 0.872 64.142-0.762 94.894-0.311 5.914-10.204 15.861-16.092 16.174C409.542 273.582 378.63 272.712 344.725 272.712zM229.988 497.737c-34.926 0-68.384 0.433-101.803-0.558-4.097-0.122-11.287-7.772-11.419-12.093-0.956-33.234-0.525-66.506-0.525-98.976 40.896 0 76.884 0 113.748 0C229.988 423.728 229.988 458.883 229.988 497.737zM457.153 497.943c-36.319 0-68.042 0.429-99.729-0.453-4.864-0.135-13.617-6.165-13.722-9.68-1.043-34.184-0.624-68.412-0.624-104.076 34.696 0 64.741-1.022 94.615 0.775 6.792 0.409 18.211 10.257 18.587 16.312C458.184 431.539 457.153 462.435 457.153 497.943zM679.426 158.018c0-74.725 0-147.695 0-222.23-37.064 0-70.629 0-106.797 0 0 165.856 0 331.894 0 500.468 127.945 0 256.314 0 387.121 0 0-166.138 0-332.188 0-500.181-34.707 0-68.965 0-106.57 0 0 73.773 0 146.75 0 221.943C794.879 158.018 739.84 158.018 679.426 158.018zM571.324 500.476c0 17.363 0 32.113 0 49.126 129.613 0 257.979 0 388.59 0 0-16.024 0-31.404 0-49.126C831.004 500.476 702.623 500.476 571.324 500.476z"  horiz-adv-x="1024" />

    
    </font>
</defs>
</svg>
